[ Сегодня на трекере фрилич! Идет свободное скачивание без начисления Download ]

Специальный полуночный выпуск / Midnight Special (Джефф Николс / Jeff Nichols) [2016 г., фантастика, триллер, драма, приключения, WEBRip] MVO (Paradox & OMSKBIRD records)

 

Создавать темы 07-Май-2016 03:24

--Специальный полуночный выпуск / Midnight Special--«He's not like us»-- Производство: США, Faliro House Productions, Tri-State Pictures, Warner Bros
Год выпуска: 2016 г.
Жанр: фантастика, триллер, драма, приключения
Продолжительность: 01:51:44--Мировая премьера: 12 февраля 2016--Перевод: Любительский (многоголосый, закадровый) [Paradox & OMSKBIRD records]--Режиссер: Джефф Николс / Jeff Nichols--В ролях: Майкл Шеннон, Джоэл Эдгертон, Кирстен Данст, Джейден Либерер, Адам Драйвер, Билл Кэмп, Скотт Хэйз, Сэм Шепард, Пол Спаркс, Дэвид Дженсен--Описание: Отец и сын сбегают, после того, как отец узнает, что его ребенок обладает сверхъестественными способностями.-- --Качество видео: WEBRip
Контейнер: AVI
Видео кодек: XviD
Аудио кодек: AC3
Видео: 720x304 (2.37:1), 23.976 fps, XviD build 50 ~1656 kbps avg, 0.32 bit/pixel
Аудио: 48 kHz, AC3 Dolby Digital, 2/0 (L,R) ch, ~192 kbpsCубтитры: Присутствуют вшитые корейские субтитры.

Media Info

Общее
Полное имя : D:\Torrent 2\Midnight.Special.2O16.P.WEBRip.1.45Gb.avi
Формат : AVI
Формат/Информация : Audio Video Interleave
Размер файла : 1,45 Гбайт
Продолжительность : 1 ч. 51 м.
Общий поток : 1858 Кбит/сек
Программа кодирования : VirtualDubMod 1.5.10.2 (build 2540/release)
Библиотека кодирования : VirtualDubMod build 2540/releaseВидео
Идентификатор : 0
Формат : MPEG-4 Visual
Профиль формата : Advanced [email protected]/* */
Параметр BVOP формата : 2
Параметр QPel формата : Нет
Параметр GMC формата : Без точки перехода
Параметр матрицы формата : Выборочная
Идентификатор кодека : XVID
Идентификатор кодека/Подсказка : XviD
Продолжительность : 1 ч. 51 м.
Битрейт : 1657 Кбит/сек
Ширина : 720 пикселей
Высота : 304 пикселя
Соотношение сторон : 2,35:1
Частота кадров : 23,976 кадра/сек
Цветовое пространство : YUV
Субдискретизация насыщенности : 4:2:0
Битовая глубина : 8 бит
Тип развёртки : Прогрессивная
Метод сжатия : С потерями
Бит/(Пиксели*Кадры) : 0.316
Размер потока : 1,29 Гбайт (89%)
Библиотека кодирования : XviD 1.2.1 (UTC 2008-12-04)Аудио
Идентификатор : 1
Формат : AC-3
Формат/Информация : Audio Coding 3
Расширение режима : CM (complete main)
Параметр Endianness формата : Big
Идентификатор кодека : 2000
Продолжительность : 1 ч. 51 м.
Вид битрейта : Постоянный
Битрейт : 192 Кбит/сек
Каналы : 2 канала
Расположение каналов : Front: L R
Частота : 48,0 КГц
Метод сжатия : С потерями
Размер потока : 153 Мбайт (10%)
Выравнивание : Разделение по промежуткам
Продолжительность промежутка : 42 мс. (1,00 видеокадр)
Время предзагрузки промежутка : 500 мс.

Скриншоты

Трейлер
Внимание присутствуют вставки голосовой и текстовой рекламы.
Яндекс.Метрика
Рейтинг@Mail.ru