Скорпион / Scorpion / Сезон: 2 / Серии: 1-24 из 24 (Сэм Хилл / Sam Hill, ...) [2015 г., боевик, криминальная драма, WEB-DLRip] MVO (BaibaKo) + Original (Eng)

 

Создавать темы 07-Май-2016 03:21

-Скорпион / Scorpion-- Производство: США, Blackjack Productions, CBS Television Studios, K/O Paper Products, Perfect Storm Entertainment, Sb Films
Жанр: боевик, криминальная драма
Год выпуска: 2015 г.
Продолжительность: 00:42:00Мировая премьера: 21 сент. 2015
Перевод: Профессиональный (многоголосый, закадровый) [BaibaKo]
Оригинальный аудиопоток: английскийРежиссер: Сэм Хилл / Sam Hill, ...-В ролях: Элиес Габел, Кэтрин МакФи, Эри Стидэм, Эдди Кэй Томас, Джейдин Вонг, Эмили Робинсон, Роберт Патрик, Рис Риос и др.-Описание: Сюжет основан на реальных событиях. Это история об эксцентричном гении и его группе вундеркиндов. Они являются аналитическим центром, работающим на службу национальной безопасности, и их задача — разбираться со сложными угрозами современности.-
Качество видео: WEB-DLRip
Контейнер: AVI
Видео кодек: XviD
Аудио кодек: MP3
Видео: 720x400 (1.80:1), 23.976 fps, XviD build 73 ~1372 kbps avg, 0.20 bit/pixel
Аудио: 48 kHz, MPEG Layer 3, 2 ch, ~128.00 kbps avg
Аудио #2: 48 kHz, MPEG Layer 3, 2 ch, ~128.00 kbps avgCубтитры: отсутствуют

Рецензия

Scorpion — легкий веселый сериальчик про команду гениев с высоким уровнем IQ и таким же высоким уровнем тараканов в голове, которые решают для правительсва всякие хитромудрые задачки: от подсоединения ноутбука к летящему над землей самолету, или спасения от взрыва ядерного реактора, до разборок карточных игр в казино и спасения детей из под обвала.
Команду возглавляет самый умный — Уолтер Обраин, и если верить титрам — это реальный человек и данная команда — Скорпион тоже существовала в реальности, помощники Уолтера: Сильвестр — человек-калькулятор, пухленький очкарик, который жутко боится микробов, Тобби — гениальный психолог, читающий людей, и страдающий жуткой зависимостью от азартных игр, Хэппи — девушка-механик, гениальный инженер, брошенная в детстве родителями и с тех пор кочевавшая по детским домам и приемным семьям, Пэйдж — обычная офицантка с обычным IQ, без каких-либо умственных суперспособностей, выполняет функцию связующего звена между вышеупомянутыми гениями и миром обычных людей, и имеющая сына-индиго лет 10-ти. Курирует все это правительственный агент Кейб Гелло в исполнении Роберта Патрика.
Мне очень понравилось, каждая серия пролетала просто за 5 минут, еще одно достоинство этого сериала, в отличие от того же Intelligence, к примеру, здесь не прет жутко раздражающий американский патриотизм из всех щелей.
9 из 10

Media Info

Формат : AVI
Формат/Информация : Audio Video Interleave
Размер файла : 500 Мбайт
Продолжительность : 42 м.
Общий поток : 1643 Кбит/сек
Название фильма : Scorpion.S02E01.XviD.BaibaKo.[pirat.ca]
Программа кодирования : VirtualDubMod 1.5.10.3 | www.virtualdub-fr.org || (build 2550/release)Видео
Идентификатор : 0
Формат : MPEG-4 Visual
Профиль формата : Advanced [email protected]/* */
Параметр BVOP формата : 2
Параметр QPel формата : Нет
Параметр GMC формата : Без точки перехода
Параметр матрицы формата : Default (MPEG)
Идентификатор кодека : XVID
Идентификатор кодека/Подсказка : XviD
Продолжительность : 42 м.
Битрейт : 1373 Кбит/сек
Ширина : 720 пикселей
Высота : 400 пикселей
Соотношение сторон : 16:9
Частота кадров : 23,976 (23976/1000) кадра/сек
Цветовое пространство : YUV
Субдискретизация насыщенности : 4:2:0
Битовая глубина : 8 бит
Тип развёртки : Прогрессивная
Метод сжатия : С потерями
Бит/(Пиксели*Кадры) : 0.199
Размер потока : 418 Мбайт (84%)
Библиотека кодирования : XviD 73Аудио #1
Идентификатор : 1
Формат : MPEG Audio
Версия формата : Version 1
Профиль формата : Layer 3
Режим : Joint stereo
Расширение режима : MS Stereo
Идентификатор кодека : 55
Идентификатор кодека/Подсказка : MP3
Продолжительность : 42 м.
Вид битрейта : Постоянный
Битрейт : 128 Кбит/сек
Каналы : 2 канала
Частота : 48,0 КГц
Метод сжатия : С потерями
Размер потока : 38,9 Мбайт (8%)
Выравнивание : Соединение по промежуткам
Продолжительность промежутка : 42 мс. (1,00 видеокадр)
Время предзагрузки промежутка : 504 мс.Аудио #2
Идентификатор : 2
Формат : MPEG Audio
Версия формата : Version 1
Профиль формата : Layer 3
Режим : Joint stereo
Расширение режима : MS Stereo
Идентификатор кодека : 55
Идентификатор кодека/Подсказка : MP3
Продолжительность : 42 м.
Вид битрейта : Постоянный
Битрейт : 128 Кбит/сек
Каналы : 2 канала
Частота : 48,0 КГц
Метод сжатия : С потерями
Размер потока : 38,9 Мбайт (8%)
Выравнивание : Соединение по промежуткам
Продолжительность промежутка : 42 мс. (1,00 видеокадр)
Время предзагрузки промежутка : 504 мс.

Скриншот c названием фильма

Скриншоты

Трейлер

Яндекс.Метрика
Рейтинг@Mail.ru