Восставший / Воскресение Христа / Risen (Кевин Рейнольдс / Kevin Reynolds) [2016 г., боевик, драма, детектив, приключения, HDRip] DVO

 

Создавать темы 07-Май-2016 03:17

-Восставший / Воскресение Христа / Risen-- Производство: США, Affirm Films, Columbia Pictures, Liddell Entertainment, Patrick Aiello Productions
Год выпуска: 2016 г.
Жанр: боевик, драма, детектив, приключения
Продолжительность: 01:46:56Мировая премьера: 19 февраля 2016
Перевод: Любительский (двухголосый, закадровый) [den904 & DeadSno]
Режиссер: Кевин Рейнольдс / Kevin Reynolds-В ролях: Джозеф Файнс, Том Фелтон, Питер Фёрт, Клифф Кёртис, Мария Ботто, Луис Кальехо, Антонио Хиль-Мартинес, Ричард Этуилл, Марк Киллин, Стюарт Скудамор-Описание: 33 год н. э. Римскому трибуну в Иудее дано задание найти пропавшее тело распятого накануне еврея, который, судя по слухам, воскрес.-
Качество видео: HDRip
Контейнер: AVI
Видео кодек: XviD
Аудио кодек: AC3
Видео: 720x304 (2.37:1), 23.976 fps, XviD build 50 ~1740 kbps avg, 0.33 bit/pixel
Аудио: 48 kHz, AC3 Dolby Digital, 2/0 (L,R) ch, ~192 kbps
Cубтитры: отсутствуют

Рецензия

Картина «Восставший» (или «Воскресение») повествует о воскрешении Иисуса Христа (Иешуа). В центре сюжета находится римский трибун Клавдий, который должен во что бы то ни стало найти тело распятого мессии…
Мне понравился христианский посыл картины Кевина Рейнольдса «Восставший». Сейчас редко выходят в свет подобные ленты, еще и с миллионными бюджетами (это не «Библия» Де Лаурентиса 1966-го года). На моей памяти только «Страсти Христовы» Мела Гибсона.
Да, фильм далеко не шедевр, к тому же без внимания осталось много интересных событий из жизни Иисуса Христа, описанных в Библии, которые можно было бы достойно обыграть (например, хрестоматийный эпизод, где Иисус Христос ходил по воде). Форма картины тоже очень упрощенная, но здесь я бы не придирался, потому как общество сейчас удивительно примитивное. А если еще и оставить библейскую риторику или сделать персонажей объемными, события в чем-то противоречивыми — такой фильм вообще не будут смотреть. Хоть в Европе, хоть в США.
К тому же не следует забывать, что это лишь одна из трактовок. В данном случае Кевина Рейнольдса.
Но присутствуют в фильме и значительные плюсы:
- Пружина сюжетной линии раскручивается со стороны римского трибуна (Джозеф Файнс). Это уже интересно, ведь все библейские события всегда подаются исключительно со стороны иудеев, увидеть эти события глазами римлянина уже оригинально;
- Простая форма (это и минус), которая позволяет задуматься над происходящим на экране даже детям или подросткам, а также отсутствие крайне жестоких сцен, не говоря уже об эротике, которая в последние годы становится разрешенной порнографией фильмов;
- Христианский подтекст, при том настоящий. Влияние неоманихейства в картине почти не чувствуется, как и богоборчество (сейчас в Бога не бросает камень только ленивый, потому что все «интеллектуалы» именно этим и стремятся отличаться — забрасывать камнями Христа или его религиозную концепцию, которая, кстати, до сих пор так и не реализована в жизнь, поскольку мы в лучшем случае христианские язычники). К тому же события подаются в нравственном ключе, что важно;
- Настоящие натурные съемки (во всяком случае, я не чувствовал «зелёного экрана»);
- Тема поиска истины главным героем (истину не выносят на блюдечке, а герой постепенно со зрителем приходят к ней, что и порождает определённо дополнительный жанр теологического детектива);
- Местами очень качественное музыкальное сопровождение Роке Баньоса («В сердце моря»).
Поэтому, подводя итог, добавлю, что картина понравилась, но общество её скорее всего не примет или забудет.
Да и зачем теперь нужен Иисус Христос, когда есть Супермен?
8 из 10

Media Info

Формат : AVI
Формат/Информация : Audio Video Interleave
Профиль формата : OpenDML
Размер файла : 1,46 Гбайт
Продолжительность : 1 ч. 46 м.
Общий поток : 1949 Кбит/сек
Название фильма : RIZEN.2O16.HDRip.[pirat.ca]
Программа кодирования : Lavf54.59.107Видео
Идентификатор : 0
Формат : MPEG-4 Visual
Профиль формата : Advanced [email protected]/* */
Параметр BVOP формата : 2
Параметр QPel формата : Нет
Параметр GMC формата : Без точки перехода
Параметр матрицы формата : Выборочная
Идентификатор кодека : XVID
Идентификатор кодека/Подсказка : XviD
Продолжительность : 1 ч. 46 м.
Битрейт : 1740 Кбит/сек
Ширина : 720 пикселей
Высота : 304 пикселя
Соотношение сторон : 2,35:1
Частота кадров : 47,952 кадров/сек
Частота кадров в оригинале : 23,976 (24000/1001) кадра/сек
Цветовое пространство : YUV
Субдискретизация насыщенности : 4:2:0
Битовая глубина : 8 бит
Тип развёртки : Прогрессивная
Метод сжатия : С потерями
Бит/(Пиксели*Кадры) : 0.166
Размер потока : 1,30 Гбайт (89%)
Библиотека кодирования : XviD 1.2.1 (UTC 2008-12-04)Аудио
Идентификатор : 1
Формат : AC-3
Формат/Информация : Audio Coding 3
Расширение режима : CM (complete main)
Параметр Endianness формата : Big
Идентификатор кодека : 2000
Продолжительность : 1 ч. 46 м.
Вид битрейта : Постоянный
Битрейт : 192 Кбит/сек
Каналы : 2 канала
Расположение каналов : Front: L R
Частота : 48,0 КГц
Частота кадров : 31,250 кадров/сек (1536 spf)
Битовая глубина : 16 бит
Метод сжатия : С потерями
Задержка видео : 1 с. 688 мс.
Размер потока : 147 Мбайт (10%)
Выравнивание : Разделение по промежуткам
Продолжительность промежутка : 32 мс. (1,53 видеокадра)

Скриншот c названием фильма

Скриншоты

Трейлер

Яндекс.Метрика
Рейтинг@Mail.ru