Восставшие / Risen (Дэймон Крамп / Damon Crump) [2008 г., ужасы, боевик, триллер, DVDRip] DVO

 

Создавать темы 07-Май-2016 03:01

-Восставшие / Risen-- Производство: США, AdHoc Film Co-Op, Frame by Frame, Jackalope Entertainment, Red Trac Productions
Год выпуска: 2008 г.
Жанр: ужасы, боевик, триллер
Продолжительность: 01:36:40Мировая премьера: 21 ноября 2008
Дата выхода DVD: 26 июля 2011, «Lizard Cinema Trade»
Перевод: Профессиональный (двухголосый, закадровый) [R5]
Режиссер: Дэймон Крамп / Damon Crump-В ролях: GiGi Erneta (Jenny Mills), Джозеф Зэкери (Sam Mills), Джейсон Харпер (Nick Mills), Стивен Ли (Jack Hays), Одри Дэвис (Chris' Mom), Оливер Люк (Chris), Мохаммад Ахмед (Ahmad), Люси Глокзин (Iris), Andrea VanEpps (Coked Up Zombie), Robert Works (Harold), Келли Флойд (Nurse), Робби Аллен (Hunter's Kid)-Описание: Ужасная эпидемия захлестнула город, наполнив его улицы кровожадными монстрами. Сэм и Дженни вынуждены отправится в самое сердце опасной зоны, чтобы спасти свою дочь. Теперь, чтобы найти ее и вывезти в безопасное для жизни место, им предстоит сразится с тварями, во много раз превосходящими силой и свирепостью диких хищников. Но самым страшным врагом на их пути станет страх смерти…-
Качество видео: DVDRip
Контейнер: AVI
Видео кодек: XviD
Аудио кодек: MP3
Видео: 624x352 (1.77:1), 25 fps, XviD build 50 ~939 kbps avg, 0.17 bit/pixel
Аудио: 48 kHz, MPEG Layer 3, 2 ch, ~128.00 kbps avg
Cубтитры: отсутствуют

Рецензия

Слишком много болтовни
Просматривая информацию о фильме «Восставшие», я везде видел одно и то же: рейтинги — чрезвычайно низкие, отзывы — исключительно негативные. Поэтому устраивался смотреть его, будучи уже несколько предвзято настроенным.
Но, как ни странно, фильм в итоге меня не разочаровал. Нет, конечно, это далеко не шедевр (точнее — вообще не шедевр), скажу более — он просто слаб, и все же откровенно плохим я его не назову.
Сюжет прост, как и во множестве картин подобного жанра: при крушении поезда происходит утечка чего-то там очень уж ядовитого, что и становится причиной появления оживших мертвецов. В центре действия — супружеская пара, которая ищет своего ребенка, оставленного с дедушкой и бабушкой.
Зомби в фильме меня не впечатлили: актеры, щедро политые бутафорской кровью и дружно подволакивающие ноги, не выглядели устрашающе. Гораздо страшнее (для мозга) были диалоги главных героев. Звучали они примерно так: «Мне кажется, мы не выживем». «Нет, надо быть сильными, и у нас все получится». «Да? Ты так думаешь? О, ты вселяешь в меня надежду! Но… Все же я не верю, что мы спасемся!» «Нам будет тяжело. Но все будет хорошо». Несколько разнообразит все эти благоглупости циничный брат главного героя, но и он порой выдает такие перлы, что хоть стой, хоть падай.
К сожалению, в фильме подобной болтовни очень много (в ущерб действию). То и дело герои сбиваются в какую-то поверхностную натужную философию, изрекая с умным видом прописные истины. И все же есть неплохие моменты, связанные с борьбой против зомби. Так что любителям жанра вполне можно посмотреть этот фильм — но не более одного раза.

Media Info

Формат : AVI
Формат/Информация : Audio Video Interleave
Размер файла : 745 Мбайт
Продолжительность : 1 ч. 36 м.
Общий поток : 1077 Кбит/сек
Название фильма : VOSSTAVSHIE.[pirat.ca]
Программа кодирования : VirtualDubMod 1.5.10.3 | www.virtualdub-fr.org || (build 2550/release)Видео
Идентификатор : 0
Формат : MPEG-4 Visual
Профиль формата : Advanced [email protected]/* */
Параметр BVOP формата : 1
Параметр QPel формата : Нет
Параметр GMC формата : Без точки перехода
Параметр матрицы формата : Выборочная
Идентификатор кодека : XVID
Идентификатор кодека/Подсказка : XviD
Продолжительность : 1 ч. 36 м.
Битрейт : 940 Кбит/сек
Ширина : 624 пикселя
Высота : 352 пикселя
Соотношение сторон : 16:9
Частота кадров : 25,000 кадров/сек
Цветовое пространство : YUV
Субдискретизация насыщенности : 4:2:0
Битовая глубина : 8 бит
Тип развёртки : Прогрессивная
Метод сжатия : С потерями
Бит/(Пиксели*Кадры) : 0.171
Размер потока : 650 Мбайт (87%)
Библиотека кодирования : XviD 1.2.1 (UTC 2008-12-04)Аудио
Идентификатор : 1
Формат : MPEG Audio
Версия формата : Version 1
Профиль формата : Layer 3
Идентификатор кодека : 55
Идентификатор кодека/Подсказка : MP3
Продолжительность : 1 ч. 36 м.
Вид битрейта : Постоянный
Битрейт : 128 Кбит/сек
Каналы : 2 канала
Частота : 48,0 КГц
Метод сжатия : С потерями
Размер потока : 88,5 Мбайт (12%)
Выравнивание : Соединение по промежуткам
Продолжительность промежутка : 40 мс. (1,00 видеокадр)
Время предзагрузки промежутка : 504 мс.
Библиотека кодирования : LAME3.98r
Настройки программы : -m s -V 4 -q 2 -lowpass 17 -b 128

Скриншот c названием фильма

Скриншоты

Трейлер

Яндекс.Метрика
Рейтинг@Mail.ru