[ Сегодня на трекере фрилич! Идет свободное скачивание без начисления Download ]

Старое ружьё (2014) HDTV [H.264/1080p-LQ] (серии 1-4 из 4)

 

Создавать темы 06-Май-2016 01:09

-Старое ружьё (2014) HDTV [H.264/1080p-LQ] (серии 1-4 из 4)- Производство: Россия / "Марс Медиа Энтертейнмент"
Жанр: военный, драма
Режиссер: Кирилл Белевич
Актеры: Тимофей Трибунцев, Ирина Пегова, Добрыня Белевич-Оболенский, Николай Козак, Юрий Ицков, Туре Рифенштейн, Ёшуа Гроте, Джулиан Мау, Фитц ван Том, Бастиан Зирих, Александр Денисов и др.
Описание:
1941 год. Петр — простой учитель в маленькой деревне. Он считает себя вне политики и уверен: если вести себя тихо и не перечить властям, тебя не тронут. Но вскоре все меняется. После ожесточенного боя Красная армия отступает, и в село приходят немцы. Оккупанты вводят комендантский час, оружие и боеприпасы приказано сдать под угрозой расстрела. А потом в семье Петра случается трагедия. И миролюбивый учитель математики берет в руки припрятанное от немцев старое ружье…

Дата премьеры в России: 09 мая 2014
Продолжительность: ~00:50:00 серия
Качество видео: HDTV
Видео: AVC/H.264, 1920х1080 (16:9), ~6100 kbps
Аудио: AC3, 2 ch, 192 kbps, CBR

Mediainfo:

Общее
Уникальный идентификатор                 : 211376421538365792937017366576338161251 (0x9F059E33CB4C68B4B750C870EE9DCE63)
Полное имя                               : F:\DOWNLOADS\Старое ружьё (2014) HDTV\Старое ружьё - 01 серия.mkv
Формат                                   : Matroska
Версия формата                           : Version 2
Размер файла                             : 2,21 Гбайт
Продолжительность                        : 49 м.
Общий поток                              : 6401 Кбит/сек
Дата кодирования                         : UTC 2016-05-05 18:06:20
Программа кодирования                    : mkvmerge v7.8.0 ('River Man') 32bit built on Apr  3 2015 12:11:22
Библиотека кодирования                   : libebml v1.3.1 + libmatroska v1.4.2
Видео
Идентификатор                            : 1
Формат                                   : AVC
Формат/Информация                        : Advanced Video Codec
Профиль формата                          : [email protected]
Параметр CABAC формата                   : Да
Параметр ReFrames формата                : 3 кадра
Идентификатор кодека                     : V_MPEG4/ISO/AVC
Продолжительность                        : 49 м.
Битрейт                                  : 6082 Кбит/сек
Ширина                                   : 1920 пикселей
Высота                                   : 1080 пикселей
Соотношение сторон                       : 16:9
Режим частоты кадров                     : Постоянный
Частота кадров                           : 25,000 кадров/сек
Стандарт вещания                         : Component
Цветовое пространство                    : YUV
Субдискретизация насыщенности            : 4:2:0
Битовая глубина                          : 8 бит
Тип развёртки                            : Чересстрочная
Метод сохранения типа развёртки          : Раздельные поля
Порядок развёртки                        : Верхнее поле первое
Бит/(Пиксели*Кадры)                      : 0.117
Размер потока                            : 2,10 Гбайт (95%)
Default                                  : Да
Forced                                   : Нет
Цветовой диапазон                        : Limited
Основные цвета                           : BT.709
Характеристики трансфера                 : BT.709
Коэффициенты матрицы                     : BT.709
Аудио
Идентификатор                            : 2
Формат                                   : AC-3
Формат/Информация                        : Audio Coding 3
Расширение режима                        : CM (complete main)
Параметр Endianness формата              : Big
Идентификатор кодека                     : A_AC3
Продолжительность                        : 49 м.
Вид битрейта                             : Постоянный
Битрейт                                  : 192 Кбит/сек
Каналы                                   : 2 канала
Расположение каналов                     : Front: L R
Частота                                  : 48,0 КГц
Частота кадров                           : 31,250 кадров/сек (1536 spf)
Метод сжатия                             : С потерями
Размер потока                            : 67,8 Мбайт (3%)
Default                                  : Да
Forced                                   : Нет
Скриншоты:
Яндекс.Метрика
Рейтинг@Mail.ru