[ Сегодня на трекере фрилич! Идет свободное скачивание без начисления Download ]

Операция «Праведник» (Павел Бардин, Мария Маханько) [2009 г., мелодрама, комедия, фэнтези, TVRip]

 

Создавать темы 05-Май-2016 02:13

-Операция «Праведник»-- Производство: Россия, Телесто
Режиссер: Павел Бардин, Мария Маханько
Жанр: мелодрама, комедия, фэнтези
Год выпуска: 2009 г.
Продолжительность: 01:33:20Российская премьера: 30 декабря 2009
В ролях: Мария Машкова, Петр Баранчеев, Виктор Добронравов, Антонина Деманова, Наталия Антонова, Карэн Бадалов, Галина Польских, Тимофей Трибунцев, Станислав Дужников, Евгения Дмитриева, ...-Описание: История в фильме состоит из двух кардинально отличающихся друг от друга параллелей — ада и земной жизни. Земная жизнь — это та, в которой мы живем, она легко представляема и узнаваема для большинства из нас: московские улицы, квартиры обычных людей, офис издательства, кафе, стандартная районная поликлиника. Вот только земной дом Чёрта больше похож на старую антикварную лавку…-Сэмпл КиноПоиск
Качество видео: TVRip
Контейнер: AVI
Видео кодек: XviD
Аудио кодек: MP3
Видео: 656x352 (1.86:1), 25 fps, XviD build 65 ~977 kbps avg, 0.17 bit/pixel
Аудио: 48 kHz, MPEG Layer 3, 2 ch, ~128.00 kbps avgCубтитры: отсутствуют

Трейлер

Media Info

Формат : AVI
Формат/Информация : Audio Video Interleave
Размер файла : 745 Мбайт
Продолжительность : 1 ч. 33 м.
Общий поток : 1116 Кбит/сек
Название фильма : Операция Праведник.[pirat.ca]
Программа кодирования : VirtualDubMod 1.5.10.3 | www.virtualdub-fr.org || (build 2550/release)Видео
Идентификатор : 0
Формат : MPEG-4 Visual
Профиль формата : Advanced [email protected]/* */
Параметр BVOP формата : 1
Параметр QPel формата : Нет
Параметр GMC формата : Без точки перехода
Параметр матрицы формата : Выборочная
Идентификатор кодека : XVID
Идентификатор кодека/Подсказка : XviD
Продолжительность : 1 ч. 33 м.
Битрейт : 978 Кбит/сек
Ширина : 656 пикселей
Высота : 352 пикселя
Соотношение сторон : 1,85:1
Частота кадров : 25,000 кадров/сек
Цветовое пространство : YUV
Субдискретизация насыщенности : 4:2:0
Битовая глубина : 8 бит
Тип развёртки : Прогрессивная
Метод сжатия : С потерями
Бит/(Пиксели*Кадры) : 0.169
Размер потока : 653 Мбайт (88%)
Библиотека кодирования : XviD 65Аудио
Идентификатор : 1
Формат : MPEG Audio
Версия формата : Version 1
Профиль формата : Layer 3
Идентификатор кодека : 55
Идентификатор кодека/Подсказка : MP3
Продолжительность : 1 ч. 33 м.
Вид битрейта : Постоянный
Битрейт : 128 Кбит/сек
Каналы : 2 канала
Частота : 48,0 КГц
Метод сжатия : С потерями
Размер потока : 85,5 Мбайт (11%)
Выравнивание : Соединение по промежуткам
Продолжительность промежутка : 40 мс. (1,00 видеокадр)
Время предзагрузки промежутка : 504 мс.
Библиотека кодирования : LAME3.99r
Настройки программы : -m s -V 4 -q 0 -lowpass 17 -b 128

Скриншот c названием фильма

Скриншоты

Яндекс.Метрика
Рейтинг@Mail.ru