Элементарно / Elementary / Сезон: 4 / Серии: 1-23 (24) (Джон Полсон / John Polson, ...) [2015 г., драма, криминал, детектив, WEB-DL, 720p] MVO (LostFilm) + Original (Eng) + Sub (Eng) [Обновляемая]

 

Создавать темы 05-Май-2016 01:56

-Элементарно / Elementary
«New Holmes. New Watson. New York»
(4 сезон)
-- Производство: США
Жанр: драма, криминал, детектив
Год выпуска: 2015 г.
Продолжительность: 23x ~00:43:00Перевод: Профессиональный (многоголосый, закадровый) [LostFilm]
Оригинальный аудиопоток: английскийРежиссер: Джон Полсон / John Polson, Эндрю Бернштейн / Andrew Bernstein, Сет Манн / Seith Mann ...-В ролях: Джонни Ли Миллер, Люси Лью, Эйдан Куинн, Джон Майкл Хилл, Рис Иванс, Натали Дормер, Ато Эссонда, Джордан Гелбер, Шон Пертуи, Линда Эмонд-Описание: Британский сыщик Шерлок Холмс — бывший наркоман, который был отправлен в Нью-Йорк на лечение в реабилитационный центр, а по завершении лечения остался в Бруклине как консультант Нью-Йоркской полиции. В расследованиях ему помогает его компаньон-наблюдатель доктор Джоан Ватсон, нанятая его отцом.- - -Качество видео: WEB-DL
Контейнер: MKV
Стандарт разрешения: 720p
Видео кодек: H.264/AVC
Аудио кодек: AC3
Видео: 1280x720 at 23.976 fps, ~3900 kbps avg
Аудио: Russian: 48 kHz, AC3, 3/2 (L,C,R,l,r) + LFE ch, ~384.00 kbps avg |Многоголосый закадровый, LostFilm|
Аудио #2: English: 48 kHz, AC3, 3/2 (L,C,R,l,r) + LFE ch, ~384.00 kbps avgCубтитры: English

Список серий

01. Уроки прошлого / The Past Is Parent
02. Доказательства невидимого / Evidence of Things Not Seen
03. Попался, теперь ты - это я / Tag, You're Me
04. Все мои бывшие живут в Эссексе / All My Exes Live in Essex
05. Подпольные игры / The Games Underfoot
06. Цена ведения дел / The Cost of Doing Business
07. Похищенная / Miss Taken
08. Бремя крови / A Burden of Blood
09. Убийство из машины / Murder Ex Machina
10. Дело об Альма Матер / Alma Matters
11. Туда, где покоятся мёртвые / Down Where the Dead Delight
12. С видом на комнату / A View With a Room
13. Этюд о Шарлотте / A Study in Charlotte
14. Кто скрывается под маской? / Who is that Masked Man
15. Вверх, в небеса и вниз, в преисподнюю / Up to Heaven and Down to Hell
16. Загнанный / Hounded
17. Ты поймал меня, но кто поймал тебя? / You've Got Me, Who's Got You?
18. Кто не спрятался / Ready or Not
19. Ва-банк / All In
20. Искусство имитирует искусство / Art Imitates Art
21. Кого ты хотел обмануть? / Ain't Nothing Like the Real Thing
22. С ног на голову / Turn It Upside Down
23. Невидимая рука / The Invisible Hand

Media Info

Код:
General
Unique ID                   : 244302198510412913299770234352696642193 (0xB7CAE4576E36B8038D38DA9260B54A91)
Complete name               : D:\Uploads\Pirat.Ca\Elementary - Season 04 (2015)[720p.WEB-DL]\Elementary.S04E01.720p.WEB-DL.Rus.Eng-HDCLUB.mkv
Format                      : Matroska
Format version              : Version 4 / Version 2
File size                   : 1.44 GiB
Duration                    : 43mn 15s
Overall bit rate            : 4 755 Kbps
Movie name                  : Elementary (2015) - Release for HDCLUB
Encoded date                : UTC 2015-11-08 19:43:06
Writing application         : mkvmerge v6.2.0 ('Promised Land') built on Apr 28 2013 12:22:01
Writing library             : libebml v1.3.0 + libmatroska v1.4.0Video
ID                          : 1
Format                      : AVC
Format/Info                 : Advanced Video Codec
Format profile              : [email protected]/*  */
Format settings, CABAC      : No
Format settings, ReFrames   : 2 frames
Codec ID                    : V_MPEG4/ISO/AVC
Duration                    : 43mn 15s
Bit rate                    : 3 892 Kbps
Width                       : 1 280 pixels
Height                      : 720 pixels
Display aspect ratio        : 16:9
Frame rate mode             : Constant
Frame rate                  : 23.976 fps
Color space                 : YUV
Chroma subsampling          : 4:2:0
Bit depth                   : 8 bits
Scan type                   : Progressive
Bits/(Pixel*Frame)          : 0.176
Stream size                 : 1.18 GiB (82%)
Language                    : English
Default                     : Yes
Forced                      : No
Color primaries             : BT.709
Transfer characteristics    : BT.709
Matrix coefficients         : BT.709
Color range                 : LimitedAudio #1
ID                          : 2
Format                      : AC-3
Format/Info                 : Audio Coding 3
Mode extension              : CM (complete main)
Format settings, Endianness : Big
Codec ID                    : A_AC3
Duration                    : 43mn 15s
Bit rate mode               : Constant
Bit rate                    : 384 Kbps
Channel(s)                  : 6 channels
Channel positions           : Front: L C R, Side: L R, LFE
Sampling rate               : 48.0 KHz
Bit depth                   : 16 bits
Compression mode            : Lossy
Stream size                 : 119 MiB (8%)
Title                       : LostFilm
Language                    : Russian
Default                     : Yes
Forced                      : NoAudio #2
ID                          : 3
Format                      : AC-3
Format/Info                 : Audio Coding 3
Mode extension              : CM (complete main)
Format settings, Endianness : Big
Codec ID                    : A_AC3
Duration                    : 43mn 15s
Bit rate mode               : Constant
Bit rate                    : 384 Kbps
Channel(s)                  : 6 channels
Channel positions           : Front: L C R, Side: L R, LFE
Sampling rate               : 48.0 KHz
Bit depth                   : 16 bits
Compression mode            : Lossy
Stream size                 : 119 MiB (8%)
Language                    : English
Default                     : No
Forced                      : NoText
ID                          : 4
Format                      : UTF-8
Codec ID                    : S_TEXT/UTF8
Codec ID/Info               : UTF-8 Plain Text
Language                    : English
Default                     : No
Forced                      : No

Скриншот c названием фильма

Скриншоты

Яндекс.Метрика
Рейтинг@Mail.ru