Время не ждет / Time Rush (Дэниэл Дзирилли / Daniel Zirilli) [2016 г., боевик, HDRip] VO

 

Создавать темы 05-Май-2016 01:53

-Время не ждет / Time Rush-- Производство: США, Pop/Art Film Factory, Stunt Power Films
Год выпуска: 2016 г.
Жанр: боевик
Продолжительность: 01:25:07Мировая премьера: 1 января 2016
Перевод: Любительский (одноголосый, закадровый) [datynet]
Режиссер: Дэниэл Дзирилли / Daniel Zirilli-В ролях: Хари Дас Ахатефу, Дин Александру, Майкл Эстон, Срисуван Асучевакамнжон, Нуттакан Буннджавай, Дэвид Буено-Описание: Алекс застрял в повторяющейся петле времени, он должен узнать правду, прокладывая свой путь через шумные улицы Бангкока и убегать от загадочных людей, которые хотят убить его .-
Качество видео: HDRip
Контейнер: AVI
Видео кодек: XviD
Аудио кодек: MP3
Видео: 720x400 (1.80:1), 23.976 fps, XviD MPEG-4 ~1867 kbps avg, 0.27 bit/pixel
Аудио: 48 kHz, MPEG Layer 3, 2 ch, ~192.00 kbps avg
Cубтитры: отсутствуют

Media Info

Формат : AVI
Формат/Информация : Audio Video Interleave
Размер файла : 1,23 Гбайт
Продолжительность : 1 ч. 25 м.
Общий поток : 2069 Кбит/сек
Название фильма : Vremya ne zhdet.2016.HDRip.[pirat.ca]
Программа кодирования : AVI-Mux GUI 1.17.8.3, Feb 16 201019:42:50Видео
Идентификатор : 0
Формат : MPEG-4 Visual
Профиль формата : Advanced [email protected]/* */
Параметр BVOP формата : 2
Параметр QPel формата : Нет
Параметр GMC формата : Без точки перехода
Параметр матрицы формата : Default (H.263)
Режим смешивания : Сжатый битовый поток
Идентификатор кодека : XVID
Идентификатор кодека/Подсказка : XviD
Продолжительность : 1 ч. 25 м.
Битрейт : 1867 Кбит/сек
Ширина : 720 пикселей
Высота : 400 пикселей
Соотношение сторон : 16:9
Частота кадров : 23,976 (23976/1000) кадра/сек
Цветовое пространство : YUV
Субдискретизация насыщенности : 4:2:0
Битовая глубина : 8 бит
Тип развёртки : Прогрессивная
Метод сжатия : С потерями
Бит/(Пиксели*Кадры) : 0.270
Размер потока : 1,11 Гбайт (90%)
Библиотека кодирования : XviD 66Аудио
Идентификатор : 1
Формат : MPEG Audio
Версия формата : Version 1
Профиль формата : Layer 3
Идентификатор кодека : 55
Идентификатор кодека/Подсказка : MP3
Продолжительность : 1 ч. 25 м.
Вид битрейта : Постоянный
Битрейт : 192 Кбит/сек
Каналы : 2 канала
Частота : 48,0 КГц
Метод сжатия : С потерями
Размер потока : 117 Мбайт (9%)
Выравнивание : Разделение по промежуткам
Продолжительность промежутка : 42 мс. (1,00 видеокадр)
Время предзагрузки промежутка : 500 мс.

Скриншот c названием фильма

Скриншоты

Трейлер

Яндекс.Метрика
Рейтинг@Mail.ru