[ Сегодня на трекере фрилич! Идет свободное скачивание без начисления Download ]

(Melodic Death Metal) Veiled In Scarlet - Reborn - 2016 [FLAC, image+.cue, lossless]

 

Создавать темы 05-Май-2016 01:50

-Veiled In Scarlet - Reborn-- Год издания: 2016
Страна: Japan
Жанр: Melodic Death Metal
Продолжительность: 44:51-Лейбл издания: Walküre Records
Тип альбома: Master
Страна-выпуска диска: Japan
Номер по каталогу: [WLKR-014]
Источник (релизер): RMT-Формат: FLAC
Битрейт аудио: lossless
Тип рипа: image+.cue
Наличие сканов в содержимом раздачи: да-

Трэклист

01. The Last Note Dances
02. Blaze of Resurrection
03. Unequal Monotone
04. Buried in Shadows
05. Reborn
06. Scarlet
07. Only Hope Remains
08. The Ink Sinks
09. Underworld
10. Whisper the Loud Silence
-

Лог создания рипа

Exact Audio Copy V1.1 from 23. June 2015EAC extraction logfile from 3. May 2016, 11:54Veiled In Scarlet / RebornUsed drive : ATAPI iHAS122 W Adapter: 2 ID: 0Read mode : Secure
Utilize accurate stream : Yes
Defeat audio cache : Yes
Make use of C2 pointers : NoRead offset correction : 48
Overread into Lead-In and Lead-Out : No
Fill up missing offset samples with silence : Yes
Delete leading and trailing silent blocks : No
Null samples used in CRC calculations : Yes
Used interface : Installed external ASPI interfaceUsed output format : User Defined Encoder
Selected bitrate : 1024 kBit/s
Quality : High
Add ID3 tag : No
Command line compressor : C:\Program Files\FLAC\flac.exe
Additional command line options : -V -8 -T "Date=%year%" -T "Genre=%genre%" -T"COMMENT=Ripped by Ilijan" -8 -V %source%TOC of the extracted CD Track | Start | Length | Start sector | End sector
---------------------------------------------------------
1 | 0:00.00 | 1:16.63 | 0 | 5762
2 | 1:16.63 | 5:01.48 | 5763 | 28385
3 | 6:18.36 | 4:26.51 | 28386 | 48386
4 | 10:45.12 | 4:30.13 | 48387 | 68649
5 | 15:15.25 | 4:55.16 | 68650 | 90790
6 | 20:10.41 | 5:06.70 | 90791 | 113810
7 | 25:17.36 | 4:56.30 | 113811 | 136040
8 | 30:13.66 | 4:22.21 | 136041 | 155711
9 | 34:36.12 | 4:22.63 | 155712 | 175424
10 | 38:59.00 | 5:52.16 | 175425 | 201840Range status and errorsSelected range Filename D:\ilко\Veiled In Scarlet - Reborn.wav Peak level 100.0 %
Extraction speed 3.6 X
Range quality 99.9 %
Test CRC 809F0C05
Copy CRC 809F0C05
Copy OKNo errors occurredAccurateRip summaryTrack 1 not present in database
Track 2 not present in database
Track 3 not present in database
Track 4 not present in database
Track 5 not present in database
Track 6 not present in database
Track 7 not present in database
Track 8 not present in database
Track 9 not present in database
Track 10 not present in databaseNone of the tracks are present in the AccurateRip databaseEnd of status report---- CUETools DB Plugin V2.1.6[CTDB TOCID: BD9.x.7J.KxEzZO.BbVjb4MkTo8-] found
Submit result: BD9.x.7J.KxEzZO.BbVjb4MkTo8- has been confirmed
Track | CTDB Status
1 | (3/3) Accurately ripped
2 | (3/3) Accurately ripped
3 | (3/3) Accurately ripped
4 | (3/3) Accurately ripped
5 | (3/3) Accurately ripped
6 | (3/3) Accurately ripped
7 | (3/3) Accurately ripped
8 | (3/3) Accurately ripped
9 | (3/3) Accurately ripped
10 | (3/3) Accurately ripped==== Log checksum 5D974D5B4DAC74D8AC1A317C703EEFDA753FF6D374366516457922C1A35ABC83 ====
-

Индексная карта (non-compilant .cue)

REM GENRE Melodic Death Metal
REM DATE 2016
REM DISCID 7E0A830A
REM COMMENT 13 Apr, 2016 japan
PERFORMER "Veiled In Scarlet"
TITLE "Reborn"
FILE "Veiled In Scarlet - Reborn.flac" WAVE
TRACK 01 AUDIO
TITLE "The Last Note Dances"
INDEX 01 00:00:00
TRACK 02 AUDIO
TITLE "Blaze Of Resurrection"
INDEX 01 01:16:63
TRACK 03 AUDIO
TITLE "Unequal Monotone"
INDEX 01 06:18:36
TRACK 04 AUDIO
TITLE "Buried In Shadows"
INDEX 01 10:45:12
TRACK 05 AUDIO
TITLE "Reborn"
INDEX 01 15:15:25
TRACK 06 AUDIO
TITLE "Scarlet"
INDEX 01 20:10:41
TRACK 07 AUDIO
TITLE "Only Hope Remains"
INDEX 01 25:17:36
TRACK 08 AUDIO
TITLE "The Ink Sinks"
INDEX 01 30:13:66
TRACK 09 AUDIO
TITLE "Underworld"
INDEX 01 34:36:12
TRACK 10 AUDIO
TITLE "Whisper The Loud Silence"
INDEX 01 38:59:00
-

Скриншот спектра частот

-
Яндекс.Метрика
Рейтинг@Mail.ru