Список Шиндлера / Schindler's List (1993) BDRip [H.264/720p]

 

Создавать темы 03-Май-2016 17:05

- Список Шиндлера / Schindler's List (1993) BDRip [H.264/720p]- Производство: США / Universal Pictures, Amblin Entertainment
Жанр: Драма, Биография, История
Режиссер: Стивен Спилберг
Актеры: Лиам Нисон, Бен Кингсли, Рэйф Файнс, Кэролайн Гудолл, Эмбет Дэвидц, Джонатан Сагалл, Малгоша Гебель, Шмуэль Леви, Марк Иванир, Беатриче Макола
Описание:
Лента рассказывает реальную историю загадочного Оскара Шиндлера, члена нацистской партии, преуспевающего фабриканта, спасшего во время Второй мировой войны более тысячи ста евреев. Это триумф одного человека, не похожего на других, и драма тех, кто, благодаря ему, выжил в ужасный период человеческой истории.-Продолжительность: 03:15:07
Качество видео: BDRip720p
Перевод: Дублированный
Видео: AVC/H.264, 1280*696, ~5664 Kbps
Аудио: DTS, 6 ch, 768 Kbps

Mediainfo:

Общее
Уникальный идентификатор                 : 284405338762156944876774076431573087124 (0xD5F679CFC50853CB3C2E3CC2B11A7394)
Полное имя                               : H:\Раздачи NNM-Club\Список Шиндлера _ Schindler's List (1993)[BDRip720P].mkv
Формат                                   : Matroska
Версия формата                           : Version 4 / Version 2
Размер файла                             : 8,94 Гбайт
Продолжительность                        : 3 ч. 15 м.
Общий поток                              : 6563 Кбит/сек
Название фильма                          : Список Шиндлера / Schindler's List(1993)
Кодирование произвёл                     : andrejpushkaryov
Описание                                 : Лента рассказывает реальную историю загадочного Оскара Шиндлера, члена нацистской партии, преуспевающего фабриканта, спасшего во время Второй Мировой войны более тысячи ста евреев.
Программа кодирования                    : Lavf57.24.100
Библиотека кодирования                   : Lavf57.24.100 / Lavf57.24.100
Примечание                               : драма, военный, биография, история
Видео
Идентификатор                            : 1
Формат                                   : AVC
Формат/Информация                        : Advanced Video Codec
Профиль формата                          : [email protected]
Параметр CABAC формата                   : Да
Параметр ReFrames формата                : 8 кадров
Идентификатор кодека                     : V_MPEG4/ISO/AVC
Продолжительность                        : 3 ч. 15 м.
Битрейт                                  : 5664 Кбит/сек
Ширина                                   : 1280 пикселей
Высота                                   : 696 пикселей
Соотношение сторон                       : 1,85:1
Режим частоты кадров                     : Постоянный
Частота кадров                           : 23,976 (24000/1001) кадра/сек
Цветовое пространство                    : YUV
Субдискретизация насыщенности            : 4:2:0
Битовая глубина                          : 8 бит
Тип развёртки                            : Прогрессивная
Бит/(Пиксели*Кадры)                      : 0.265
Размер потока                            : 7,72 Гбайт (86%)
Библиотека кодирования                   : x264 core 148 r2665 a01e339
Настройки программы                      : cabac=1 / ref=8 / deblock=1:0:0 / analyse=0x3:0x133 / me=umh / subme=9 / psy=1 / psy_rd=1.00:0.00 / mixed_ref=1 / me_range=24 / chroma_me=1 / trellis=2 / 8x8dct=1 / cqm=0 / deadzone=21,11 / fast_pskip=1 / chroma_qp_offset=-2 / threads=3 / lookahead_threads=1 / sliced_threads=0 / nr=0 / decimate=1 / interlaced=0 / bluray_compat=0 / constrained_intra=0 / bframes=3 / b_pyramid=2 / b_adapt=2 / b_bias=0 / direct=3 / weightb=1 / open_gop=0 / weightp=2 / keyint=250 / keyint_min=23 / scenecut=40 / intra_refresh=0 / rc_lookahead=60 / rc=crf / mbtree=1 / crf=18.0 / qcomp=0.60 / qpmin=0 / qpmax=69 / qpstep=4 / ip_ratio=1.40 / aq=1:1.00
Default                                  : Да
Forced                                   : Нет
DURATION                                 : 03:15:06.569000000
Аудио
Идентификатор                            : 2
Формат                                   : DTS
Формат/Информация                        : Digital Theater Systems
Режим                                    : 16
Параметр Endianness формата              : Big
Идентификатор кодека                     : A_DTS
Продолжительность                        : 3 ч. 15 м.
Вид битрейта                             : Постоянный
Битрейт                                  : 768 Кбит/сек
Каналы                                   : 6 каналов
Расположение каналов                     : Front: L C R, Side: L R, LFE
Частота                                  : 48,0 КГц
Частота кадров                           : 93,750 кадра/сек (512 spf)
Битовая глубина                          : 24 бит
Метод сжатия                             : С потерями
Размер потока                            : 1,05 Гбайт (12%)
Язык                                     : Russian
Default                                  : Да
Forced                                   : Нет
DURATION                                 : 03:15:06.570000000
Скриншоты:
Яндекс.Метрика
Рейтинг@Mail.ru