Семь дней: Понедельник - Четверг / Seven Days: Monday - Thursday (Ёкои Такэси) [2015, Япония, драма, сёнен-ай, школа, BDRip] MVO (CactusTeam) + Sub (Rus)

 

Создавать темы 02-Май-2016 21:46

Семь дней: Понедельник - Четверг / Seven Days: Monday - Thursday- Страна: Япония
Жанр: драма, сёнен-ай, школа
Год выпуска: 2015
Продолжительность: 01:06:42
Перевод: Любительский (многоголосый закадровый) [CactusTeam]
Cубтитры: русские
Оригинальная аудиодорожка: японская-Режиссер: Ёкои Такэси
В ролях: Хиросе Томоки, Ямада Джеймс Такэси, Танака Хинако, Хёри Юки, Такигучи Юкихиро-Описание: Шино Юзуру студент третьего курса встретил Сэрё Тодзи. Всем изветно, что Сэрё самый популярный первокурсник встречается с любой, кто его попросит, но отношения продлятся всего лишь неделю. Сначала в шутку, потом из любопытства Шино предлагает Сэре встречаться. Теперь у них впереди семь дней отношений...-Перевод, редактура: Yuli4ka Daisuke
Озвучивание: многолосое [Joker & Kristabel & Huck'MasterOK]
Тайминг: Huck'MasterOK
Обложка: Kristabel
Работа со звуком: Hatiko
Релиз от:
-Качество видео: BDRip
Формат видео: MKV
Видео: x264 (8 bit), 1280x690, 4062 kbps, 23.976 fps
Аудио: [int] AC-3, 224 kbps, 48.0 KHz, 2 ch
Аудио 2: [int] AC-3, 640 kbps, 48.0 KHz, 2 ch
Субтитры: [int, ASS] Форсированные (надписи)
Субтитры 2: [int, ASS] Полные-

MediaInfo

General
Unique ID : 198765094973277028463324335827612926019 (0x9588C3CBF38C03ADA76E4A2A15290043)
Complete name : E:\CactusTeam\[CactusTeam]_Seven_Days_Monday_-_Thursday_(BD_x264_720p_AC-3)_[MVO]\[CactusTeam]_Seven_Days_Monday_-_Thursday_(BD_x264_720p_AC-3)_[MVO].mkv
Format : Matroska
Format version : Version 4 / Version 2
File size : 2.30 GiB
Duration : 1h 6mn
Overall bit rate : 4 929 Kbps
Encoded date : UTC 2016-04-30 19:52:15
Writing application : mkvmerge v8.6.1 ('Flying') 64bit
Writing library : libebml v1.3.3 + libmatroska v1.4.4
Video
ID : 1
Format : AVC
Format/Info : Advanced Video Codec
Format profile : [email protected]
Format settings, CABAC : Yes
Format settings, ReFrames : 9 frames
Codec ID : V_MPEG4/ISO/AVC
Duration : 1h 6mn
Bit rate : 4 062 Kbps
Width : 1 280 pixels
Height : 690 pixels
Display aspect ratio : 1.85:1
Frame rate mode : Constant
Frame rate : 23.976 (24000/1001) fps
Color space : YUV
Chroma subsampling : 4:2:0
Bit depth : 8 bits
Scan type : Progressive
Bits/(Pixel*Frame) : 0.192
Stream size : 1.89 GiB (82%)
Writing library : x264 core 129 r2245+704+36 8e61944 tMod+MixAQ [[email protected]:2:0 X86_64]
Encoding settings : cabac=1 / ref=9 / deblock=1:-3:-3 / analyse=0x3:0x133 / me=umh / subme=11 / psy=1 / fade_compensate=0.00 / psy_rd=1.05:0.10 / mixed_ref=1 / me_range=32 / chroma_me=1 / trellis=2 / 8x8dct=1 / cqm=0 / deadzone=21,11 / fast_pskip=0 / chroma_qp_offset=-3 / threads=18 / lookahead_threads=3 / sliced_threads=0 / nr=0 / decimate=0 / interlaced=0 / bluray_compat=0 / constrained_intra=0 / fgo=0 / bframes=10 / b_pyramid=2 / b_adapt=2 / b_bias=0 / direct=3 / weightb=1 / open_gop=0 / weightp=2 / keyint=250 / keyint_min=23 / scenecut=40 / intra_refresh=0 / rc_lookahead=80 / rc=2pass / mbtree=1 / bitrate=4062 / ratetol=1.0 / qcomp=0.70 / qpmin=0 / qpmax=69 / qpstep=4 / cplxblur=20.0 / qblur=0.5 / ip_ratio=1.40 / aq=1 / aq-strength=0.90 / aq-sensitivity=10.00 / aq-ifactor=1.00 / aq-pfactor=1.00 / aq-bfactor=1.00 / aq2=0
Language : Japanese
Default : Yes
Forced : Yes
Audio #1
ID : 2
Format : AC-3
Format/Info : Audio Coding 3
Mode extension : CM (complete main)
Format settings, Endianness : Big
Codec ID : A_AC3
Duration : 1h 6mn
Bit rate mode : Constant
Bit rate : 224 Kbps
Channel(s) : 2 channels
Channel positions : Front: L R
Sampling rate : 48.0 KHz
Frame rate : 31.250 fps (1536 spf)
Compression mode : Lossy
Stream size : 107 MiB (5%)
Title : MVO [CactusTeam]
Language : Russian
Default : Yes
Forced : Yes
Audio #2
ID : 3
Format : AC-3
Format/Info : Audio Coding 3
Mode extension : CM (complete main)
Format settings, Endianness : Big
Codec ID : A_AC3
Duration : 1h 6mn
Bit rate mode : Constant
Bit rate : 640 Kbps
Channel(s) : 2 channels
Channel positions : Front: L R
Sampling rate : 48.0 KHz
Frame rate : 31.250 fps (1536 spf)
Compression mode : Lossy
Stream size : 305 MiB (13%)
Title : Original
Language : Japanese
Default : No
Forced : No
Text #1
ID : 4
Format : ASS
Codec ID : S_TEXT/ASS
Codec ID/Info : Advanced Sub Station Alpha
Duration : 3mn 47s
Bit rate : 21 bps
Count of elements : 4
Compression mode : Lossless
Stream size : 611 Bytes (0%)
Title : Форсированные (надписи)
Language : Russian
Default : Yes
Forced : Yes
Text #2
ID : 5
Format : ASS
Codec ID : S_TEXT/ASS
Codec ID/Info : Advanced Sub Station Alpha
Duration : 1h 2mn
Bit rate : 119 bps
Count of elements : 700
Compression mode : Lossless
Stream size : 55.2 KiB (0%)
Title : Полные
Language : Russian
Default : No
Forced : No

Скриншот c названием фильма

Скриншоты


_________________
Подпись отключена за нарушение правил форума
Яндекс.Метрика
Рейтинг@Mail.ru