Рождённая свободной / Born Free (1966) BDRip [H.264]

 

Создавать темы 02-Май-2016 10:24

- Рождённая свободной / Born Free (1966) BDRip [H.264]- Производство: Великобритания, США (Columbia Pictures)
Жанр: Драма, Приключения, Семейный
Режиссер: Джеймс Хилл, Том Макгоун
Актеры: Вирджиния МакКенна, Билл Треверс, Джеффри Кин, Питер Лукойе, Омар Чамбати, Билл Годден, Брайан Эпсом, Роберт Читэм, Роберт С. Янг, Джеффри Бест
Описание:
Фильм был снят в Африканской саванне по одноименному бестселлеру известной писательницы и натуралиста Джой Адамсон. Картина рассказывает о судьбе львицы Эльсы, еще детенышем попавшей к супругам Адамсон. Они не только спасают малышку от неминуемой гибели, но и, вырастив ее, возвращают назад в дикую природу потому, что она была рождена свободной.-Возраст: 0+ (для любой зрительской аудитории)
Рейтинг MPAA: PG (рекомендуется присутствие родителей)
Продолжительность: 01:35:08
Качество видео: BDRip
Перевод: Двуголосый закадровый
Язык субтитров: Русский, английский
Вид субтитров: Вшитые, отключаемые
Видео: AVC/H.264, 1168x496, ~2980 kbps
Аудио#1: AC3, 2 ch, 192 Kbps | Русский DVO
Аудио#2: AC3, 2 ch, 192 Kbps | Украинский DVO (1+1)
Аудио#3: AC3, 1 ch, 256 Kbps | Английский (оригинал)

Mediainfo:

Общее
Уникальный идентификатор                 : 238347281577066335383746313781274282257 (0xB3500444D462B30C8576793C7BD10911)
Полное имя                               : I:\Фильмы о животных\Рождённая свободной\Рожденная свободной.1966.mkv
Формат                                   : Matroska
Версия формата                           : Version 4 / Version 2
Размер файла                             : 2,45 Гбайт
Продолжительность                        : 1 ч. 35 м.
Общий поток                              : 3694 Кбит/сек
Название фильма                          : Release for Topmost
Дата кодирования                         : UTC 2016-05-02 06:38:24
Программа кодирования                    : mkvmerge v6.2.0 ('Promised Land') built on Apr 28 2013 12:22:01
Библиотека кодирования                   : libebml v1.3.0 + libmatroska v1.4.0
Attachment                               : Yes
Видео
Идентификатор                            : 1
Формат                                   : AVC
Формат/Информация                        : Advanced Video Codec
Профиль формата                          : [url=mailto:[email protected]][email protected][/url]
Параметр CABAC формата                   : Да
Параметр ReFrames формата                : 1 кадр
Идентификатор кодека                     : V_MPEG4/ISO/AVC
Продолжительность                        : 1 ч. 35 м.
Битрейт                                  : 2980 Кбит/сек
Ширина                                   : 1168 пикселей
Высота                                   : 496 пикселей
Соотношение сторон                       : 2,35:1
Режим частоты кадров                     : Постоянный
Частота кадров                           : 23,976 кадра/сек
Цветовое пространство                    : YUV
Субдискретизация насыщенности            : 4:2:0
Битовая глубина                          : 8 бит
Тип развёртки                            : Прогрессивная
Бит/(Пиксели*Кадры)                      : 0.215
Размер потока                            : 1,98 Гбайт (81%)
Заголовок                                : Рождённая свободной.1966 (Release for Topmost)
Язык                                     : English
Default                                  : Да
Forced                                   : Нет
Аудио #1
Идентификатор                            : 2
Формат                                   : AC-3
Формат/Информация                        : Audio Coding 3
Расширение режима                        : CM (complete main)
Параметр Endianness формата              : Big
Идентификатор кодека                     : A_AC3
Продолжительность                        : 1 ч. 35 м.
Вид битрейта                             : Постоянный
Битрейт                                  : 192 Кбит/сек
Каналы                                   : 2 канала
Расположение каналов                     : Front: L R
Частота                                  : 48,0 КГц
Битовая глубина                          : 16 бит
Метод сжатия                             : С потерями
Размер потока                            : 131 Мбайт (5%)
Заголовок                                : AC3, 2 ch, 192 kbps - DVO
Язык                                     : Russian
Default                                  : Да
Forced                                   : Нет
Аудио #2
Идентификатор                            : 3
Формат                                   : AC-3
Формат/Информация                        : Audio Coding 3
Расширение режима                        : CM (complete main)
Параметр Endianness формата              : Big
Идентификатор кодека                     : A_AC3
Продолжительность                        : 1 ч. 35 м.
Вид битрейта                             : Постоянный
Битрейт                                  : 192 Кбит/сек
Каналы                                   : 2 канала
Расположение каналов                     : Front: L R
Частота                                  : 48,0 КГц
Битовая глубина                          : 16 бит
Метод сжатия                             : С потерями
Размер потока                            : 131 Мбайт (5%)
Заголовок                                : AC3, 2 ch, 192 kbps - DVO (1+1)
Язык                                     : Ukrainian
Default                                  : Нет
Forced                                   : Нет
Аудио #3
Идентификатор                            : 4
Формат                                   : AC-3
Формат/Информация                        : Audio Coding 3
Расширение режима                        : CM (complete main)
Параметр Endianness формата              : Big
Идентификатор кодека                     : A_AC3
Продолжительность                        : 1 ч. 35 м.
Вид битрейта                             : Постоянный
Битрейт                                  : 256 Кбит/сек
Каналы                                   : 1 канал
Расположение каналов                     : Front: C
Частота                                  : 48,0 КГц
Битовая глубина                          : 16 бит
Метод сжатия                             : С потерями
Размер потока                            : 174 Мбайт (7%)
Заголовок                                : AC3, 1 ch, 256 kbps - оригинал
Язык                                     : English
Default                                  : Нет
Forced                                   : Нет
Текст #1
Идентификатор                            : 5
Формат                                   : UTF-8
Идентификатор кодека                     : S_TEXT/UTF8
Идентификатор кодека/Информация          : UTF-8 Plain Text
Заголовок                                : full
Язык                                     : Russian
Default                                  : Нет
Forced                                   : Нет
Текст #2
Идентификатор                            : 6
Формат                                   : UTF-8
Идентификатор кодека                     : S_TEXT/UTF8
Идентификатор кодека/Информация          : UTF-8 Plain Text
Заголовок                                : full
Язык                                     : English
Default                                  : Нет
Forced                                   : Нет
Текст #3
Идентификатор                            : 7
Формат                                   : UTF-8
Идентификатор кодека                     : S_TEXT/UTF8
Идентификатор кодека/Информация          : UTF-8 Plain Text
Заголовок                                : SDH
Язык                                     : English
Default                                  : Нет
Forced                                   : Нет
Меню
00:00:00.000                             : en:00:00:00
00:04:09.624                             : en:00:04:09
00:07:43.045                             : en:00:07:43
00:12:31.709                             : en:00:12:31
00:15:48.446                             : en:00:15:48
00:19:44.683                             : en:00:19:44
00:24:56.869                             : en:00:24:56
00:28:11.648                             : en:00:28:11
00:30:53.101                             : en:00:30:53
00:34:59.472                             : en:00:34:59
00:38:23.426                             : en:00:38:23
00:45:08.080                             : en:00:45:08
00:47:31.431                             : en:00:47:31
00:51:11.902                             : en:00:51:11
00:54:44.406                             : en:00:54:44
00:59:10.964                             : en:00:59:10
01:04:56.142                             : en:01:04:56
01:07:04.478                             : en:01:07:04
01:11:38.502                             : en:01:11:38
01:15:25.020                             : en:01:15:25
01:20:00.670                             : en:01:20:00
01:22:21.853                             : en:01:22:21
01:27:58.898                             : en:01:27:58
01:31:04.457                             : en:01:31:04

Дополнительная информация:

Джой Адамсон, (англ. Joy Adamson, урождённая Фридерике Виктория Гесснер, нем. Friederike Victoria Gessner) (20 января 1910, Троппау, Австро-Венгрия, ныне Опава, Чехия — Шаба (национальный заповедник), Кения, 3 января 1980) — натуралист, писательница, художница, защитница живой природы. Известна своими книгами, где описывала свою жизнь среди диких животных в Африке и усилия по их защите от браконьеров. Убита бывшим сотрудником, желавшим отомстить за увольнение.

Награды и номинации:

Оскар, 1967 год:

- Лучшая песня — «Born Free»;
- Лучший саундтрек
Золотой глобус, 1967 год:
Номинации:
- Лучшая женская роль (драма) (Вирджиния МакКенна);
- Лучший фильм (драма);
- Лучшая песня — «Born Free»

Рецензия, отзыв:

Замечательный, добрый и трогательный фильм.
Скриншоты:
Время раздачи: 24/7 до 5 скачавших (до появления первых 3-5 скачавших)
Яндекс.Метрика
Рейтинг@Mail.ru