Интерны (2016) WEB-DL [H.264/720p-LQ] (сезон 14, серии 1-20 из 20)

 

Создавать темы 30-Апр-2016 19:37

-Интерны (2016) WEB-DL [H.264/720p-LQ]«Лучший антидепрессант на российском ТВ»- Производство: Россия / "Комеди Клаб Продакшн" по заказу тнт
Жанр: комедия, ситком
Режиссер: Максим Пежемский, Дина Штурманова
Актеры: Иван Охлобыстин, Илья Глинников, Вадим Демчог, Светлана Камынина, Юлия Назаренко-Благая, Один Ланд Байрон, Светлана Пермякова, Александр Ляпин, Аглая Тарасова, Яна Гурьянова, Азамат Мусагалиев и др.
Описание:
Некоторые люди в белых халатах уверены, что сердце - всего лишь мышца, качающая кровь. Но только не герои нового сезона «Интернов». На вверенном доктору Быкову этаже кипят пушкинские страсти: интриги, секс и любовные треугольники стали нормой жизни . А перчинки всему этому добавят шаманы в палатах, жены с почасовой оплатой и всего один, но зато настоящий пистолет. Все смешалось в отделении доктора Быкова!
Возраст: 16+ (зрителям, достигшим 16 лет)
Дата мировой премьеры: 31 августа 2010
Дата премьеры в РФ: 29 марта 2010
Дата выхода DVD: 15 мая 2010, «Флагман-Трейд»

Продолжительность: ~ 00:24:00 серия
Качество видео: WEB-DL
Видео: AVC, 1280x720 (16:9), 25.000 fps, 2 084 Kbps (0.090 bit/pixel)
Видео 7-ой серии: AVC, 896x504 (16:9), 25.000 fps, 1 826 Kbps (0.162 bit/pixel)
Аудио: AC-3, 48.0 KHz, 2 ch, 192 Kbps, CBR

MediaInfo

Формат                                   : Matroska
Версия формата                           : Version 4 / Version 2
Размер файла                             : 414 Мбайт
Продолжительность                        : 24 м.
Общий поток                              : 2323 Кбит/сек
Дата кодирования                         : UTC 2016-04-30 04:24:32
Программа кодирования                    : mkvmerge v9.0.0 ('Power to progress') 64bit
Библиотека кодирования                   : libebml v1.3.3 + libmatroska v1.4.4
DURATION                                 : 00:24:56.736000000
NUMBER_OF_FRAMES                         : 46773
NUMBER_OF_BYTES                          : 35921664
_STATISTICS_WRITING_APP                  : mkvmerge v9.0.0 ('Power to progress') 64bit
_STATISTICS_WRITING_DATE_UTC             : 2016-04-30 04:24:32
_STATISTICS_TAGS                         : BPS DURATION NUMBER_OF_FRAMES NUMBER_OF_BYTES
Видео
Идентификатор                            : 1
Формат                                   : AVC
Формат/Информация                        : Advanced Video Codec
Профиль формата                          : [url=mailto:[email protected]][email protected][/url]
Параметр CABAC формата                   : Да
Параметр ReFrames формата                : 1 кадр
Параметр GOP формата                     : M=1, N=12
Идентификатор кодека                     : V_MPEG4/ISO/AVC
Продолжительность                        : 24 м.
Битрейт                                  : 2084 Кбит/сек
Ширина                                   : 1280 пикселей
Высота                                   : 720 пикселей
Соотношение сторон                       : 16:9
Режим частоты кадров                     : Постоянный
Частота кадров                           : 25,000 кадров/сек
Стандарт вещания                         : Component
Цветовое пространство                    : YUV
Субдискретизация насыщенности            : 4:2:0
Битовая глубина                          : 8 бит
Тип развёртки                            : Прогрессивная
Бит/(Пиксели*Кадры)                      : 0.090
Размер потока                            : 372 Мбайт (90%)
Default                                  : Да
Forced                                   : Нет
Цветовой диапазон                        : Limited
Аудио
Идентификатор                            : 2
Формат                                   : AC-3
Формат/Информация                        : Audio Coding 3
Расширение режима                        : CM (complete main)
Параметр Endianness формата              : Big
Идентификатор кодека                     : A_AC3
Продолжительность                        : 24 м.
Вид битрейта                             : Постоянный
Битрейт                                  : 192 Кбит/сек
Каналы                                   : 2 канала
Расположение каналов                     : Front: L R
Частота                                  : 48,0 КГц
Битовая глубина                          : 16 бит
Метод сжатия                             : С потерями
Размер потока                            : 34,3 Мбайт (8%)
Default                                  : Да
Forced                                   : Нет
Формат                                   : Matroska
Версия формата                           : Version 4 / Version 2
Размер файла                             : 366 Мбайт
Продолжительность                        : 24 м.
Общий поток                              : 2059 Кбит/сек
Дата кодирования                         : UTC 2016-04-30 04:38:14
Программа кодирования                    : mkvmerge v9.0.0 ('Power to progress') 64bit
Библиотека кодирования                   : libebml v1.3.3 + libmatroska v1.4.4
DURATION                                 : 00:24:50.400000000
NUMBER_OF_FRAMES                         : 46575
NUMBER_OF_BYTES                          : 35769600
_STATISTICS_WRITING_APP                  : mkvmerge v9.0.0 ('Power to progress') 64bit
_STATISTICS_WRITING_DATE_UTC             : 2016-04-30 04:38:14
_STATISTICS_TAGS                         : BPS DURATION NUMBER_OF_FRAMES NUMBER_OF_BYTES
Видео
Идентификатор                            : 1
Формат                                   : AVC
Формат/Информация                        : Advanced Video Codec
Профиль формата                          : [url=mailto:[email protected]][email protected][/url]
Параметр CABAC формата                   : Да
Параметр ReFrames формата                : 8 кадров
Идентификатор кодека                     : V_MPEG4/ISO/AVC
Продолжительность                        : 24 м.
Битрейт                                  : 1826 Кбит/сек
Ширина                                   : 896 пикселей
Высота                                   : 504 пикселя
Соотношение сторон                       : 16:9
Режим частоты кадров                     : Постоянный
Частота кадров                           : 25,000 кадров/сек
Цветовое пространство                    : YUV
Субдискретизация насыщенности            : 4:2:0
Битовая глубина                          : 8 бит
Тип развёртки                            : Прогрессивная
Бит/(Пиксели*Кадры)                      : 0.162
Размер потока                            : 324 Мбайт (89%)
Библиотека кодирования                   : x264 core 148
Настройки программы                      : cabac=1 / ref=8 / deblock=1:-1:-1 / analyse=0x1:0x131 / me=umh / subme=9 / psy=1 / psy_rd=1.00:0.15 / mixed_ref=1 / me_range=16 / chroma_me=1 / trellis=2 / 8x8dct=0 / cqm=0 / deadzone=21,11 / fast_pskip=1 / chroma_qp_offset=-3 / threads=16 / lookahead_threads=1 / sliced_threads=0 / nr=0 / decimate=1 / interlaced=0 / bluray_compat=0 / constrained_intra=0 / bframes=3 / b_pyramid=2 / b_adapt=2 / b_bias=0 / direct=3 / weightb=1 / open_gop=0 / weightp=2 / keyint=250 / keyint_min=25 / scenecut=40 / intra_refresh=0 / rc_lookahead=60 / rc=crf / mbtree=1 / crf=17.0 / qcomp=0.60 / qpmin=0 / qpmax=69 / qpstep=4 / vbv_maxrate=2000 / vbv_bufsize=2000 / crf_max=0.0 / nal_hrd=none / filler=0 / ip_ratio=1.40 / aq=1:1.00
Default                                  : Да
Forced                                   : Нет
Аудио
Идентификатор                            : 2
Формат                                   : AC-3
Формат/Информация                        : Audio Coding 3
Расширение режима                        : CM (complete main)
Параметр Endianness формата              : Big
Идентификатор кодека                     : A_AC3
Продолжительность                        : 24 м.
Вид битрейта                             : Постоянный
Битрейт                                  : 192 Кбит/сек
Каналы                                   : 2 канала
Расположение каналов                     : Front: L R
Частота                                  : 48,0 КГц
Битовая глубина                          : 16 бит
Метод сжатия                             : С потерями
Размер потока                            : 34,1 Мбайт (9%)
Default                                  : Да
Forced                                   : Нет
Скриншоты:
Яндекс.Метрика
Рейтинг@Mail.ru