Гастролёры / Беглецы (Паланга) (Серии 1—16 из 16) (Андрей Щербинин) [2015/16, криминальная комедия, HDTVRip]

 

Создавать темы 30-Апр-2016 11:23

--Гастролёры / Беглецы (Паланга)--
  • Год выпуска: 2015/16
  • Страна: Россия / «Продюсерский центр Сергея Жигунова»
  • Жанр: криминальная комедия
  • Продолжительность: 16 х ~00:42:00
  • Перевод: Не требуется-
  • Режиссёр: Андрей Щербинин-
  • В ролях: Максим Аверин, Алексей Воробьёв, Ксения Кутепова, Арнис Лицитис, Сергей Перегудов, Ивар Калныньш, Екатерина Кузнецова, Сергей Уманов, Кристина Кузьмина, Анна Табанина, Владимир Зайцев, Лембит Ульфсак, Борис Шувалов...-
  • В криминальном районе Тамбова живут два брата — Вова Сабонеев (Максим Аверин), владелец популярного среди братвы ресторана, и Мишаня (Алексей Воробьёв), беспечный весельчак, вечно попадающий в переделки. Очередная выходка Мишани провоцирует конфликт между Вовой и местными авторитетами. Братья вынуждены бежать в Литву, с которой у Вовы связаны романтические воспоминания. Именно там родственники планируют начать другую жизнь. И зовут их теперь по-новому — Вовас и Микас, вот только привычки у них остались прежними...-
  • Премьера в России: 25 апреля 2016 (НТВ)--
  • --
  • Качество видео: HDTVRip
  • Формат видео: AVI
  • Видео кодек: XviD
  • Аудио кодек: MP3
  • Видео: 624x352 (1.78:1), 25.000 fps, XviD MPEG-4, ~800 kbps avg, 0.145 bit/pixel
  • Аудио: 48.0 kHz, MPEG Audio Layer 3, 2 ch, ~128.00 kbps avg
  • Субтитры: нет
--

Media Info

General
Complete name : W:\O.S.A.\Торренты\Завершенные торренты\Gastrolery.2015.XviD.HDTVRip.by.GeneralFilm\Serija.01.avi
Format : AVI
Format/Info : Audio Video Interleave
File size : 279 MiB
Duration : 41mn 44s
Overall bit rate : 935 Kbps
Writing application : VirtualDubMod 1.5.10.3 | www.virtualdub-fr.org || (build 2550/release)
Writing library : VirtualDubMod build 2550/release
Video
ID : 0
Format : MPEG-4 Visual
Format profile : Advanced [email protected]
Format settings, BVOP : 1
Format settings, QPel : No
Format settings, GMC : No warppoints
Format settings, Matrix : Custom
Codec ID : XVID
Codec ID/Hint : XviD
Duration : 41mn 44s
Bit rate : 797 Kbps
Width : 624 pixels
Height : 352 pixels
Display aspect ratio : 16:9
Frame rate : 25.000 fps
Color space : YUV
Chroma subsampling : 4:2:0
Bit depth : 8 bits
Scan type : Progressive
Compression mode : Lossy
Bits/(Pixel*Frame) : 0.145
Stream size : 238 MiB (85%)
Writing library : XviD 73
Audio
ID : 1
Format : MPEG Audio
Format version : Version 1
Format profile : Layer 3
Codec ID : 55
Codec ID/Hint : MP3
Duration : 41mn 44s
Bit rate mode : Constant
Bit rate : 128 Kbps
Channel(s) : 2 channels
Sampling rate : 48.0 KHz
Compression mode : Lossy
Stream size : 38.2 MiB (14%)
Alignment : Aligned on interleaves
Interleave, duration : 40 ms (1.00 video frame)
Interleave, preload duration : 504 ms
Writing library : LAME3.99r
Encoding settings : -m s -V 4 -q 0 -lowpass 17 -b 128
---- --
Яндекс.Метрика
Рейтинг@Mail.ru