C.C.Catch - Maxi Hit-Sensation [Nonstop DJ-Mix] (2006) APE

 

Создавать темы 29-Апр-2016 21:06

-C.C.Catch - Maxi Hit-Sensation [Nonstop DJ-Mix]- Жанр: Disco
Год выпуска: 2006
Страна: Германия
Формат: APE (image + .cue)
Битрейт: lossless
Кол-во композиций: 16
Продолжительность: 01:17:40
Смотреть видео
Треклист:
01. Soul Suvivor (Long Version) [0:04:58.33]
02. Midnight Gambler (Long Version) [0:04:11.21]
03. Backseat of your cadillac (Extended Version) [0:04:34.42]
04. Good guys only win in movies (Maxi-Version) [0:04:40.11]
05. I can lose my heart tonight (Maxi-Version) [0:05:20.51]
06. Baby, I need your love (Extended Mix) [0:04:19.63]
07. Are you man enough (Long Version Muscle Mix) [0:06:01.06]
08. Heaven and hell (Extended Mix) [0:05:05.17]
09. You shout a hole in my soul (Maxi-Version) [0:05:10.26]
10. Heartbreak Hotel (Room 69-Mix) [0:04:47.13]
11. Jump in my car (Maxi-Version) [0:04:09.72]
12. Nothing but a heartache (12'' Mix) [0:05:01.62]
13. One night's not enough (Maxi-Version) [0:05:05.07]
14. Strangers by night (Maxi-Version) [0:05:31.62]
15. 'Cause you are young (Maxi-Version) [0:04:36.68]
16. House of mystic lights (Long Version Dance Mix) [0:04:05.12]

EAC

Exact Audio Copy V0.99 prebeta 4 from 23. January 2008
EAC extraction logfile from 10. May 2008, 16:31
C.C. Catch / Maxi Hit-Senastion (Nonstop DJ-Mix)
Used drive  : TSSTcorpCDDVDW SH-S203B   Adapter: 6  ID: 0
Read mode               : Secure
Utilize accurate stream : Yes
Defeat audio cache      : Yes
Make use of C2 pointers : No
Read offset correction                      : 6
Overread into Lead-In and Lead-Out          : No
Fill up missing offset samples with silence : Yes
Delete leading and trailing silent blocks   : No
Null samples used in CRC calculations       : Yes
Used interface                              : Installed external ASPI interface
Used output format              : Monkey's Audio Lossless Encoder
Selected bitrate                : Fast Lossless Compression
Quality                         : High
Add ID3 tag                     : No
Command line compressor         : C:Program FilesMonkey's AudioMAC.exe
TOC of the extracted CD
     Track |   Start  |  Length  | Start sector | End sector
    ---------------------------------------------------------
        1  |  0:00.00 |  4:58.33 |         0    |    22382
        2  |  4:58.33 |  4:11.21 |     22383    |    41228
        3  |  9:09.54 |  4:34.42 |     41229    |    61820
        4  | 13:44.21 |  4:40.11 |     61821    |    82831
        5  | 18:24.32 |  5:20.51 |     82832    |   106882
        6  | 23:45.08 |  4:19.63 |    106883    |   126370
        7  | 28:04.71 |  6:01.06 |    126371    |   153451
        8  | 34:06.02 |  5:05.17 |    153452    |   176343
        9  | 39:11.19 |  5:10.26 |    176344    |   199619
       10  | 44:21.45 |  4:47.13 |    199620    |   221157
       11  | 49:08.58 |  4:09.72 |    221158    |   239904
       12  | 53:18.55 |  5:01.62 |    239905    |   262541
       13  | 58:20.42 |  5:05.07 |    262542    |   285423
       14  | 63:25.49 |  5:31.62 |    285424    |   310310
       15  | 68:57.36 |  4:36.68 |    310311    |   331078
       16  | 73:34.29 |  4:05.12 |    331079    |   349465
Range status and errors
Selected range
     Filename C:uTorrentCDC.C. Catch - Maxi Hit-Senastion (Nonstop DJ-Mix)C.C. Catch - Maxi Hit-Senastion (Nonstop DJ-Mix).wav
     Peak level 96.6 %
     Range quality 100.0 %
     Copy CRC BE0D1D13
     Copy OK
No errors occurred
AccurateRip summary
Track  1  not present in database
Track  2  not present in database
Track  3  not present in database
Track  4  not present in database
Track  5  not present in database
Track  6  not present in database
Track  7  not present in database
Track  8  not present in database
Track  9  not present in database
Track 10  not present in database
Track 11  not present in database
Track 12  not present in database
Track 13  not present in database
Track 14  not present in database
Track 15  not present in database
Track 16  not present in database
None of the tracks are present in the AccurateRip database
End of status report
Яндекс.Метрика
Рейтинг@Mail.ru