Анатомия страсти / Анатомия Грей / Grey's Anatomy / Сезон: 12 / Серии: 1-20 из 24 (Роб Корн / Rob Corn) [2015, драма, мелодрама, WEB-DLRip] MVO (BaibaKo)

 

Создавать темы 29-Апр-2016 11:43

-Анатомия страсти | Grey's Anatomy-- • Год выпуска: 2015
• Страна: США
• Жанр: драма, мелодрама
• Продолжительность: ~ 00:43:00-• Перевод: Профессиональный (многоголосый закадровый) | BaibaKo-• Режиссёр: Роб Корн-• В ролях: Эллен Помпео, Джастин Чэмберс, Сара Рамирез, Чандра Уилсон, Джеймс Пикенс мл., Кевин МакКидд, Мелисса Джордж, Джессика Кэпшоу-• Описание: Анатомия страсти – это захватывающий своим сюжетом, драматичностью и не ординарностью сериал. В фильме описывается жизнь молодых хирургов, которые посвящают свою жизнь работе в клинике, операциям и пациентам. Но так же не забывают про личную жизнь, которую они с лёгкостью устраивают на рабочем месте. Сериал показывает повседневную жизнь простых врачей, их проблемы, разочарования, неудачи и то, как друзья помогают справиться с навалившимися трудностями на работе и в личной жизни. Каждая серия - это история наполненная интересными открытиями в хирургии, жизненными историями взаимопониманием между коллегами.- --• Качество: WEB-DLRip
• Формат: AVI
• Видео: XviD, 720x400 (16:9), 23,976 fps, ~1500 kbps
• Аудио #1: MP3, 48 kHz, 2 ch, 192 kbps, CBR - Rus
• Аудио #2: MP3, 48 kHz, 2 ch, 192 kbps, CBR - Eng
• Субтитры: отсутствуют-

✘ Релиз ✘

Перевод: Фиона Кудреватых и Никита Коваль
Озвучка: Ольга Мотрич, Юля Малахова, Светлана Доманова и Сергей Корчак
Монтаж: Павел Дежин
Обложка: tvblog

✘ MediaInfo ✘

Общее
Формат                                   : AVI
Формат/Информация                        : Audio Video Interleave
Размер файла                             : 586 Мбайт
Продолжительность                        : 43 м.
Общий поток                              : 1903 Кбит/сек
Программа кодирования                    : VirtualDubMod 1.5.10.3 | www.virtualdub-fr.org || (build 2550/release)
Библиотека кодирования                   : VirtualDubMod build 2550/release
Видео
Идентификатор                            : 0
Формат                                   : MPEG-4 Visual
Профиль формата                          : Advanced [email protected]
Параметр BVOP формата                    : 2
Параметр QPel формата                    : Нет
Параметр GMC формата                     : Без точки перехода
Параметр матрицы формата                 : Default (MPEG)
Идентификатор кодека                     : XVID
Идентификатор кодека/Подсказка           : XviD
Продолжительность                        : 43 м.
Битрейт                                  : 1505 Кбит/сек
Ширина                                   : 720 пикселей
Высота                                   : 400 пикселей
Соотношение сторон                       : 16:9
Частота кадров                           : 23,976 кадра/сек
Цветовое пространство                    : YUV
Субдискретизация насыщенности            : 4:2:0
Битовая глубина                          : 8 бит
Тип развёртки                            : Прогрессивная
Метод сжатия                             : С потерями
Бит/(Пиксели*Кадры)                      : 0.218
Размер потока                            : 463 Мбайт (79%)
Библиотека кодирования                   : XviD 73
Аудио #1
Идентификатор                            : 1
Формат                                   : MPEG Audio
Версия формата                           : Version 1
Профиль формата                          : Layer 3
Режим                                    : Joint stereo
Расширение режима                        : MS Stereo
Идентификатор кодека                     : 55
Идентификатор кодека/Подсказка           : MP3
Продолжительность                        : 43 м.
Вид битрейта                             : Постоянный
Битрейт                                  : 192 Кбит/сек
Каналы                                   : 2 канала
Частота                                  : 48,0 КГц
Метод сжатия                             : С потерями
Размер потока                            : 59,1 Мбайт (10%)
Выравнивание                             : Соединение по промежуткам
Продолжительность промежутка             : 42  мс. (1,00 видеокадр)
Время предзагрузки промежутка            : 504  мс.
Аудио #2
Идентификатор                            : 2
Формат                                   : MPEG Audio
Версия формата                           : Version 1
Профиль формата                          : Layer 3
Режим                                    : Joint stereo
Расширение режима                        : MS Stereo
Идентификатор кодека                     : 55
Идентификатор кодека/Подсказка           : MP3
Продолжительность                        : 43 м.
Вид битрейта                             : Постоянный
Битрейт                                  : 192 Кбит/сек
Каналы                                   : 2 канала
Частота                                  : 48,0 КГц
Метод сжатия                             : С потерями
Размер потока                            : 59,1 Мбайт (10%)
Выравнивание                             : Соединение по промежуткам
Продолжительность промежутка             : 42  мс. (1,00 видеокадр)
Время предзагрузки промежутка            : 504  мс.

✘ Скриншоты ✘

✘ Раздача ведется путем добавления новых серий ✘

Когда раздача ведётся путём добавления новых серий, при каждом добавлении создётся новый торрент. Чтобы начать докачку новой серии, пользователям необходимо сделать следующее:
(1) остановить скачивание,
(2) удалить старый торрент у себя из клиента (старые серии удалять не надо),
(3) скачать новый торрент и запустить его у себя в клиенте вместо старого, при этом указать клиенту путь в старую папку, куда и должно происходить скачивание новых серий.
Ваш клиент при этом должен произвести хеширование (проверку) старой папки (если не производит сам - помогите ему сделать это), и будет докачивать только те серии, которых у вас ещё нет. Старые серии при этом не удаляются, а продолжают раздаваться!
Eсли вы уже удалили старые серии, то предотвратить повторную закачку старых серий можно, отжав галочку в соответсвующих местах при запуске нового торрента. По возможности, желательно не удалять старые серии как можно дольше, чтобы релизёр не столько продолжал раздавать старые серии, а смог сконцентрироваться на новых.
-

_________________
Подпись отключена за нарушение правил форума
Яндекс.Метрика
Рейтинг@Mail.ru