Электра / Elektra (Роб Боуман / Rob Bowman) [2005 г., фэнтези, боевик, триллер, криминал, HDRip] [Театральная версия / Theatrical Cut] Dub

 

Создавать темы 29-Апр-2016 02:51

-Электра / Elektra / Театральная версия / Theatrical Cut-- Производство: Канада, США, 20th Century Fox Film Corporation, Elektra Productions, Epsilon Motion Pictures... (17 студий)
Год выпуска: 2005 г.
Жанр: фэнтези, боевик, триллер, криминал
Продолжительность: 01:36:49Мировая премьера: 8 января 2005
Российская премьера: 10 марта 2005, «Гемини Киномир»
Дата выхода DVD: 21 июня 2005, «Гемини-Фильм»
Дата выхода Blu-Ray: 26 ноября 2009, «Двадцатый Век Фокс СНГ»Перевод: Профессиональный (полное дублирование) [CPIG 2005 ]
Режиссер: Роб Боуман / Rob Bowman-В ролях: Дженнифер Гарнер, Горан Вишнич, Кирстен Праут, Уилл Юн Ли, Кэри-Хироюки Тагава, Теренс Стэмп, Натасия Мальте, Боб Сапп, Крио Экерман, Эдсон Т. Рибейро и др.-Описание: Фильм является спин-офф сиквелом "Сорвиголовы" и рассказывает историю Электры Начос. Электру, убитую в "Сорвиголове" возвращает к жизни таинственная организация "Order of the Hand", готовящая профессиональных убийц. Однако, получив свое первое задание - убить Марка Миллера и его 13-летнюю дочь. Но вместо этого они становятся друзьями и решают вместе противостоять заказчикам - воинам-ниндзя из тайного ордена наемных убийц…-
Качество видео: HDRip
Контейнер: AVI
Видео кодек: XviD
Аудио кодек: MP3
Видео: 672x288 (2.33:1), 23.976 fps, XviD build 50 ~941 kbps avg, 0.20 bit/pixel
Аудио: 48 kHz, MPEG Layer 3, 2 ch, ~128.00 kbps avg
Cубтитры: отсутствуют

Доп. информация

Съемки фильма начались 5 мая 2004 года в Ванкувере, поближе к съемочному процессу сериала «Шпионка» /Alias/, в котором Гарнер исполняет главную роль.
Героя Горана Вишнича зовут в фильме Марк Миллер, что является отсылкой к имени Фрэнка Миллера, художника некоторых выпусков комиксов об Электре и создателя самой героини.
У Бэна Аффлека есть камео в этом фильме, которое удалили из фильма, но оно доступно в вырезанных сценах на DVD.

Награды

Премия канала «MTV», 2005 год
Номинации (1):
Лучший поцелуй (Дженнифер Гарнер, Наташа Мальте)

Рецензия

Женщина в красном
По духу «Электра» имеет больше общего со «Смертельной битвой» и «DOA» нежели с «Сорвиголовой» коим спин-оффом она и является. И все, потому что в успех «Электры» изначально ни кто не верил из создателей, и всерьез вкладывать деньги и силы в экранизацию второстепенного персонажа после провала фильма об основном герое уже не хотел, но попытаться заработать немного на имени, которое у зрителя все еще было на слуху, стоило. Так видимо и решали продюсеры.
В результате мы имеем героиню с лицом и фигурой модели, которая ловко управляется кинжалами, но лишена и юмора и харизмы. И вообще героиня Дженефер Гарнер зрителю вряд ли запомнится, так как кроме как размахивать кинжалами и прыгать, опираясь о стены, Электра нечего не умеет. И как показал результат, героиня с минимальным набором движений уместнее смотрится на втором плане как красивое дополнение к Сорвиголове, но совершенно не способна вытянуть на себе целый фильм.
Особенно если к фильму относятся столь посредственно и поверхностно как мы видим в «Электре». Красивая картина и визуальные эффекты вот на что здесь сделан основной акцент. Но перенасыщение компьютерными эффектами и губит картину целиком. Спецэффекты в «Электре» прикручены ко всему и к месту и не к месту, из-за чего порой удивляешься, а на какую аудиторию рассчитывали создатели, явно не на подростков, а на тех, кто еше намного младше их. Отсюда и вытекают основные огрехи ленты. Слабый сценарий, картонные злодеи, неинтересный и неизобретательный экшен, неубедительная экшен-героиня.
«Электра» — неинтересный пустой слабый фэнтези-боевик рассчитанный на младший школьный возраст.
5 из 10

Media Info

Формат : AVI
Формат/Информация : Audio Video Interleave
Размер файла : 747 Мбайт
Продолжительность : 1 ч. 36 м.
Общий поток : 1079 Кбит/сек
Название фильма : Elektra.2005.HDRip.[pirat.ca]
Программа кодирования : VirtualDubMod 1.5.10.2 (build 2540/release)Видео
Идентификатор : 0
Формат : MPEG-4 Visual
Профиль формата : Advanced [email protected]/* */
Параметр BVOP формата : 1
Параметр QPel формата : Нет
Параметр GMC формата : Без точки перехода
Параметр матрицы формата : Выборочная
Идентификатор кодека : XVID
Идентификатор кодека/Подсказка : XviD
Продолжительность : 1 ч. 36 м.
Битрейт : 942 Кбит/сек
Ширина : 672 пикселя
Высота : 288 пикселей
Соотношение сторон : 2,35:1
Частота кадров : 23,976 (23976/1000) кадра/сек
Цветовое пространство : YUV
Субдискретизация насыщенности : 4:2:0
Битовая глубина : 8 бит
Тип развёртки : Прогрессивная
Метод сжатия : С потерями
Бит/(Пиксели*Кадры) : 0.203
Размер потока : 652 Мбайт (87%)
Библиотека кодирования : XviD 1.2.1 (UTC 2008-12-04)Аудио
Идентификатор : 1
Формат : MPEG Audio
Версия формата : Version 1
Профиль формата : Layer 3
Идентификатор кодека : 55
Идентификатор кодека/Подсказка : MP3
Продолжительность : 1 ч. 36 м.
Вид битрейта : Постоянный
Битрейт : 128 Кбит/сек
Каналы : 2 канала
Частота : 48,0 КГц
Метод сжатия : С потерями
Размер потока : 88,6 Мбайт (12%)
Выравнивание : Соединение по промежуткам
Продолжительность промежутка : 42 мс. (1,00 видеокадр)
Время предзагрузки промежутка : 504 мс.
Библиотека кодирования : LAME3.98r
Настройки программы : -m s -V 4 -q 2 -lowpass 17 -b 128

Скриншот c названием фильма

Скриншоты

Трейлер

Яндекс.Метрика
Рейтинг@Mail.ru