Тетрадь смерти / Death Note / Desu nôto (Тэцуро Араки / Tetsuro Araki, ...) [TV] [1-37 из 37] [2006-2007 г.] [аниме, мультфильм, фэнтези, триллер, драма, криминал, детектив] [BDRip] [720p] [RUS/ENG/JAP + SUB(RUS, ENG)]

 

Создавать темы 29-Апр-2016 02:47

-Тетрадь смерти / Death Note / Desu nôto
«Take down Yotsuba!»
-- Год выпуска: 2006-2007
Страна: Япония
Жанр: аниме, мультфильм, фэнтези, триллер, драма, криминал, детектив
Продолжительность: 37x ~00:22:00
Тип: TVОзвучка: Профессиональная (полное дублирование) от 2x2 / Mega-AnimeРежиссер: Тэцуро Араки / Tetsuro Araki, Наоясу Ханьюй / Naoyasu Hanyu, Томохико Ито / Tomohiko Ito
Студия: Описание: Убийство - дело непростое даже для хорошо подготовленного человека. Главную библейскую заповедь нам вбивают с детства. А даже если у кого-то и проскальзывают мысли «как сладко было бы воткнуть ножик в приятеля и придушить бы подружку, которая с пресловутым приятелем переспала» или что-нибудь попроще «подсыпать бы яду профессору, что никак зачет не ставит» или совсем невинное «вот бы конкурент в окошко выпал». Но обычно дальше фантазий, этакой невинной интеллектуальной мастурбации эти мысли не доходят. Даже те из нас, для кого убийство морально приемлемо боятся - боятся наказания.
А теперь представьте, что у вас есть способность убить всех, кто вам не нравится, причем убить, просто написав их имя в потертой черной тетрадке с надписью Death Note. Эта тетрадь - идеальное оружие. Не нужно покупать пистолеты и точить ножи, искать веревки и выпаривать из бытовой химии яды. Достаточно знать имя и внешность того, кого хотите убить, росчерк карандаша и через 40 секунд недоброжелатель умирает от сердечного приступа, а если вы не лишены фантазии, смерть можно обставить более интересно, болезнь, несчастный случай, самоубийство, наконец. Ни отпечатков пальцев, ни орудия убийства.
А что если у кого-то возникнет идея сделать с помощью тетрадки нечто большее, чем просто смерть обидчиков? Что если этот кто-то окажется идеалистом, готовым принять решение за целый мир?- -Источник: BDRip
Контейнер: MKV
Видео кодек: H.264/AVC
Аудио кодек: AC3
Видео: 1280x720 at 23.976 fps, [email protected]/* */, 2pass, ~5500-6500 kbps avg
Аудио RUS: 48 kHz, AC3, 2/0 (L,R) ch, ~192.00 kbps avg |Дубляж, 2x2 / Mega-Anime|
Аудио ENG: 48 kHz, AC3, 2/0 (L,R) ch, ~256.00 kbps avg |Дубляж|
Аудио JAP: 48 kHz, AC3, 2/0 (L,R) ch, ~256.00 kbps avg
Субтитры: Russian SRT (full by Mega-Anime), Russian ASS (full by oTpbIBku, WarHammer, ShurShur и Azatoth), English SRT (full)

Знаете ли вы, что...

• Японское название «дэсу ното» — это всего лишь запись английского «Death Note» знаками катаканы и не более того. Это название вообще не переводится с японского на русский. При этом «Death Note» можно перевести с английского языка на русский как «Тетрадь Смерти», однако если «Тетрадь Смерти» перевести на японский то получится «си но ното».
• В начале второй заставки к аниме идут названия «Death Note» на разных языках. На русском авторы называют сериал «Записка Ангела Смерти».
• В связи с неоднозначным трактованием в английском языке слова «note», которое чаще употребляется как «записка», многие англоязычные фанаты называют саму тетрадь как «Notebook of Death». В данном контексте слово «notebook» означает в точности «тетрадь», а всё название дословно «Тетрадь cмерти».
• В 14-й серии, когда Лайт просматривал интернет, он пользовался некой поисковой системой под названием «Gentle», дизайн главной страницы которой очень напоминает дизайн поисковой системы «Google».
• Некоторые герои, в частности L, пользуются сотовыми телефонами очень похожими по очертанию на смартфон Nokia 6630.
• Одной из тем аниме-сериала и манги является яблоко, скорее всего имеется в виду библейское значение — искушение. Яблоки часто мелькают в кадре: от любимой пищи Рюка до логотипа на компьютере Лайта.
• В первом опенинге есть пародия на картину Микеланджело Буонароти «Сотворение Адама». Вместо Адама — Лайт, вместо Бога — Рюк, и Лайт передаёт Рюку яблоко.
• В пилотном выпуске манги сказано, что в тетради 60 страниц по 38 строк, и если она закончится, можно попросить у бога смерти другую. Также в пилотном выпуске был ластик, с помощью которого можно стирать имена и возвращать людей к жизни. В самой манге и аниме страницы тетради не кончаются, а ластика не существует.
• Действие аниме разворачивается на три года позже манги — в 2007 году.

Media Info

Код:
Format                      : Matroska
Format version              : Version 4 / Version 2
File size                   : 1.15 GiB
Duration                    : 22mn 57s
Overall bit rate            : 7 145 Kbps
Encoded date                : UTC 2016-04-18 16:47:17
Writing application         : mkvmerge v6.0.0 ('Coming Up For Air') built on Jan 20 2013 09:52:00
Writing library             : libebml v1.3.0 + libmatroska v1.4.0Video
ID                          : 1
Format                      : AVC
Format/Info                 : Advanced Video Codec
Format profile              : [email protected]/*  */
Format settings, CABAC      : Yes
Format settings, ReFrames   : 9 frames
Codec ID                    : V_MPEG4/ISO/AVC
Duration                    : 22mn 57s
Bit rate                    : 6 298 Kbps
Width                       : 1 280 pixels
Height                      : 720 pixels
Display aspect ratio        : 16:9
Frame rate mode             : Constant
Frame rate                  : 23.976 fps
Color space                 : YUV
Chroma subsampling          : 4:2:0
Bit depth                   : 8 bits
Scan type                   : Progressive
Bits/(Pixel*Frame)          : 0.285
Stream size                 : 1.01 GiB (88%)
Writing library             : x264 core 148 r2665 a01e339
Encoding settings           : cabac=1 / ref=9 / deblock=1:-3:-3 / analyse=0x3:0x133 / me=umh / subme=10 / psy=1 / psy_rd=1.05:0.00 / mixed_ref=1 / me_range=64 / chroma_me=1 / trellis=2 / 8x8dct=1 / cqm=0 / deadzone=21,11 / fast_pskip=0 / chroma_qp_offset=-2 / threads=18 / lookahead_threads=4 / sliced_threads=0 / nr=0 / decimate=0 / interlaced=0 / bluray_compat=0 / constrained_intra=0 / bframes=16 / b_pyramid=2 / b_adapt=2 / b_bias=0 / direct=3 / weightb=1 / open_gop=0 / weightp=2 / keyint=240 / keyint_min=23 / scenecut=40 / intra_refresh=0 / rc_lookahead=60 / rc=crf / mbtree=0 / crf=17.0 / qcomp=0.70 / qpmin=0 / qpmax=69 / qpstep=4 / vbv_maxrate=62500 / vbv_bufsize=78125 / crf_max=0.0 / nal_hrd=none / filler=0 / ip_ratio=1.30 / pb_ratio=1.20 / aq=3:0.80
Language                    : Japanese
Default                     : Yes
Forced                      : No
Color primaries             : BT.709
Transfer characteristics    : BT.709
Matrix coefficients         : BT.709
Color range                 : LimitedAudio #1
ID                          : 2
Format                      : AC-3
Format/Info                 : Audio Coding 3
Mode extension              : CM (complete main)
Format settings, Endianness : Big
Codec ID                    : A_AC3
Duration                    : 22mn 57s
Bit rate mode               : Constant
Bit rate                    : 192 Kbps
Channel(s)                  : 2 channels
Channel positions           : Front: L R
Sampling rate               : 48.0 KHz
Bit depth                   : 16 bits
Compression mode            : Lossy
Stream size                 : 31.5 MiB (3%)
Title                       : 2x2 / Mega-Anime
Language                    : Russian
Default                     : Yes
Forced                      : NoAudio #2
ID                          : 3
Format                      : AC-3
Format/Info                 : Audio Coding 3
Mode extension              : CM (complete main)
Format settings, Endianness : Big
Codec ID                    : A_AC3
Duration                    : 22mn 57s
Bit rate mode               : Constant
Bit rate                    : 256 Kbps
Channel(s)                  : 2 channels
Channel positions           : Front: L R
Sampling rate               : 48.0 KHz
Bit depth                   : 16 bits
Compression mode            : Lossy
Stream size                 : 42.0 MiB (4%)
Language                    : English
Default                     : No
Forced                      : NoAudio #3
ID                          : 4
Format                      : AC-3
Format/Info                 : Audio Coding 3
Mode extension              : CM (complete main)
Format settings, Endianness : Big
Codec ID                    : A_AC3
Duration                    : 22mn 57s
Bit rate mode               : Constant
Bit rate                    : 256 Kbps
Channel(s)                  : 2 channels
Channel positions           : Front: L R
Sampling rate               : 48.0 KHz
Bit depth                   : 16 bits
Compression mode            : Lossy
Stream size                 : 42.0 MiB (4%)
Language                    : Japanese
Default                     : No
Forced                      : NoText #1
ID                          : 5
Format                      : UTF-8
Codec ID                    : S_TEXT/UTF8
Codec ID/Info               : UTF-8 Plain Text
Title                       : Mega-Anime
Language                    : Russian
Default                     : No
Forced                      : NoText #2
ID                          : 6
Format                      : ASS
Codec ID                    : S_TEXT/ASS
Codec ID/Info               : Advanced Sub Station Alpha
Compression mode            : Lossless
Title                       : oTpbIBku, StanWarHammer
Language                    : Russian
Default                     : No
Forced                      : NoText #3
ID                          : 7
Format                      : UTF-8
Codec ID                    : S_TEXT/UTF8
Codec ID/Info               : UTF-8 Plain Text
Language                    : English
Default                     : No
Forced                      : NoMenu
00:00:00.000                : en:Opening
00:01:25.961                : en:Part 1
00:10:46.062                : en:Part 2
00:21:26.118                : en:Ending
00:22:36.105                : en:Preview

Список эпизодов

01. Тетрадь смерти / Shinsei: New Birth
02. Противостояние / Taiketsu: Confrontation
03. Сделка / Torihiki: Deal
04. Погоня / Tsuiseki: Pursuit
05. Торг / Kakehiki: Tactics
06. Открытый шов / Hokorobi: Rent
07. Хмурое небо / Donten: Cloudy Weather
08. Взгляд / Mesen: Glance
09. Контакт / Sesshoku: Touch
10. Подозрение / Giwaku: Suspicion
11. Штурм / Totsunyû: Plunge
12. Любовь / Koigokoro: Beloved
13. Признание / Kokuhaku: Confession
14. Друг / Tomodachi: Friend
15. Ставка / Kake: Gambling
16. Решение / Ketsudan: Determination
17. Казнь / Shikkou: Enforcement
18. Товарищи / Nakama: Comrade
19. Мацуда / Matsuda: Matsuda
20. Замена / Kosoku: Makeshift
21. Работа / Katsuyaku: Activity
22. Направление / Yuudou: Lead
23. Безумие / Kyousou: Crazy
24. Возрождение / Fukkatsu: Resurrection
25. Тишина / Chinmoku: Silence
26. Воспроизведение / Saisei: Reincarnation
27. Похищение / Yûkai: Abduction
28. Нетерпение / Kôkei: Impatience
29. Отец / Chichioya: Father
30. Справедливость / Seigi: Justice
31. Перемещение / Ijou: Transfer
32. Выбор / Sentaku: Selection
33. Усмешка / Choushou: Ridicule
34. Настороженность / Koshi: Vigilance
35. Жажда крови / Satsui: Murderous Intent
36. 28 января / 1.28: 1.28
37. Новый мир / Shinsekai: New World

Скриншоты

Яндекс.Метрика
Рейтинг@Mail.ru