[ Сегодня на трекере фрилич! Идет свободное скачивание без начисления Download ]

Слёзы на подушке / Серии: 1-4 из 4 (Дмитрий Сорокин) [2016, Россия, Мелодрама, HDTVRip]

 

Создавать темы 28-Апр-2016 13:55

Слёзы на подушке Год выпуска: 2016
Производитель : Россия, ООО МЕГА продакшн
Жанр: Мелодрама
Продолжительность: 90 мин.
Cубтитры: нет
Режиссер: Дмитрий Сорокин
В ролях: Марина Денисова, Андрей Карако, Наталия Солдатова, Александр Павлов (IV), Елена Стеценко, Максим Коновалов, Игорь Сигов, Константин Конюхов, Валентина Гарцуева, Дмитрий Пустильник, Матвей Елфимов
Описание: Три бывшие одноклассницы и подруги - Валя, Наташа и Таня - встретились на 15-летие выпуска из школы. Им есть чем похвастаться. Валя стала владелицей модельного агентства. Наташа руководит кондитерской фабрикой. Таня - художница, сейчас готовит очередную выставку картин. После вечера встречи выпускников каждая из подруг возвращается в свой «идеальный мир». Но придя домой Валя, Наташа и Таня, каждая в своей квартире, упали на подушку и разревелись. На самом деле их мир был так далек от идеального, но никто из одноклассниц не хотел признаться в этом. Встретившись снова, три подруги признались друг другу в своих бедах, и как в школьные годы, сидя в квартире Наташиных родителей, стали строить планы. Только теперь планы были не о том, как покорить мир, а о том, как выжить. Смогут ли подруги осуществить свои планы, и удастся ли им всем вместе выкрутиться из сложных обстоятельств? И что потребуется им пережить, прежде чем они скажут – счастье есть?
Релиз группа
Сэмпл
Качество: HDTVRip
Формат: AVI
Видео кодек: XviD
Аудио кодек: AC3
Видео: 720x400 (1.80:1), 25 fps, XviD build 73 ~1848 kbps avg, 0.22 bit/pixel
Аудио: 48 kHz, AC3 Dolby Digital, 2/0 (L,R) ch, ~192.00 kbps avg

MI

General
Complete name : X:\раздачи\Слёзы на подушке.2016.HDTVRip.RG.Russkie.serialy.&.Files-x\01.Слёзы на подушке.2016.HDTVRip.RG.Russkie.serialy.&.Files-x.avi
Format : AVI
Format/Info : Audio Video Interleave
File size : 1.37 GiB
Duration : 1h 36mn
Overall bit rate : 2 032 Kbps
Writing application : VirtualDubMod 1.5.10.3 | www.virtualdub-fr.org || (build 2550/release)
Writing library : VirtualDubMod build 2550/release
Video
ID : 0
Format : MPEG-4 Visual
Format profile : Advanced [email protected]
Format settings, BVOP : 1
Format settings, QPel : No
Format settings, GMC : No warppoints
Format settings, Matrix : Custom
Codec ID : XVID
Codec ID/Hint : XviD
Duration : 1h 36mn
Bit rate : 1 831 Kbps
Width : 720 pixels
Height : 400 pixels
Display aspect ratio : 16:9
Frame rate : 25.000 fps
Color space : YUV
Chroma subsampling : 4:2:0
Bit depth : 8 bits
Scan type : Progressive
Compression mode : Lossy
Bits/(Pixel*Frame) : 0.254
Stream size : 1.23 GiB (90%)
Writing library : XviD 73
Audio
ID : 1
Format : AC-3
Format/Info : Audio Coding 3
Mode extension : CM (complete main)
Format settings, Endianness : Big
Codec ID : 2000
Duration : 1h 36mn
Bit rate mode : Constant
Bit rate : 192 Kbps
Channel(s) : 2 channels
Channel positions : Front: L R
Sampling rate : 48.0 KHz
Frame rate : 31.250 fps (1536 spf)
Compression mode : Lossy
Stream size : 132 MiB (9%)
Alignment : Split accross interleaves
Interleave, duration : 40 ms (1.00 video frame)
Interleave, preload duration : 500 ms
Скриншоты

_________________
Подпись отключена за нарушение правил форума
Яндекс.Метрика
Рейтинг@Mail.ru