[ Сегодня на трекере фрилич! Идет свободное скачивание без начисления Download ]

(Punk Rock) Face To Face - Protection - 2016 [FLAC, tracks+.cue, lossless]

 

Создавать темы 28-Апр-2016 04:43

-Face To Face - Protection-- Год издания: 2016
Страна: USA
Жанр: Punk Rock
Продолжительность: 34:09-Лейбл издания: FAT
Тип альбома: Master
Страна-выпуска диска: USA
Номер по каталогу: FAT954-2
Источник (релизер): vaffles-Формат: FLAC
Битрейт аудио: lossless
Тип рипа: tracks+.cue
Наличие сканов в содержимом раздачи: да-

Трэклист

01) Bent But Not Broken
02) I Won't Say I'm Sorry
03) Double Crossed
04) See If I Care
05) Say What You Want
06) Protection
07) Fourteen Fifty-Nine (A Hate Song)
08) It Almost All Went Wrong
09) Keep Your Chin Up
10) Middling Around
11) And So It Goes
-

Лог создания рипа

Exact Audio Copy V1.1 from 23. June 2015EAC extraction logfile from 6. March 2016, 8:17Face To Face / ProtectionUsed drive : ASUS SDRW-08U5S-U Adapter: 1 ID: 0Read mode : Secure
Utilize accurate stream : Yes
Defeat audio cache : Yes
Make use of C2 pointers : NoRead offset correction : 6
Overread into Lead-In and Lead-Out : No
Fill up missing offset samples with silence : Yes
Delete leading and trailing silent blocks : No
Null samples used in CRC calculations : Yes
Used interface : Native Win32 interface for Win NT & 2000
Gap handling : Appended to previous trackUsed output format : User Defined Encoder
Selected bitrate : 320 kBit/s
Quality : High
Add ID3 tag : No
Command line compressor : C:\Program Files (x86)\Exact Audio Copy\Flac\flac.exe
Additional command line options : -8 -V -T "ARTIST=%artist%" -T "TITLE=%title%" -T "ALBUM=%albumtitle%" -T "DATE=%year%" -T "TRACKNUMBER=%tracknr%" -T "TOTALTRACKS=%numtracks%" -T "GENRE=%genre%" -T "ALBUMARTIST=%albumartist%" -T "ALBUM ARTIST=%albumartist%" -T "COMMENT=EAC Secure Mode, Test & Copy, AccurateRip, FLAC -8" %source%TOC of the extracted CD Track | Start | Length | Start sector | End sector
---------------------------------------------------------
1 | 0:00.00 | 2:30.41 | 0 | 11290
2 | 2:30.41 | 3:27.23 | 11291 | 26838
3 | 5:57.64 | 2:49.23 | 26839 | 39536
4 | 8:47.12 | 3:25.41 | 39537 | 54952
5 | 12:12.53 | 2:52.55 | 54953 | 67907
6 | 15:05.33 | 2:57.38 | 67908 | 81220
7 | 18:02.71 | 2:53.24 | 81221 | 94219
8 | 20:56.20 | 2:57.13 | 94220 | 107507
9 | 23:53.33 | 3:35.08 | 107508 | 123640
10 | 27:28.41 | 3:00.70 | 123641 | 137210
11 | 30:29.36 | 3:38.64 | 137211 | 153624Track 1 Filename Z:\Uploads\Face To Face - Protection (2016) [FLAC]\01 - Bent But Not Broken.wav Pre-gap length 0:00:02.00 Peak level 98.8 %
Extraction speed 2.1 X
Track quality 100.0 %
Test CRC CB586B5A
Copy CRC CB586B5A
Track not present in AccurateRip database
Copy OKTrack 2 Filename Z:\Uploads\Face To Face - Protection (2016) [FLAC]\02 - I Won't Say I'm Sorry.wav Peak level 98.8 %
Extraction speed 2.3 X
Track quality 100.0 %
Test CRC 00B6F921
Copy CRC 00B6F921
Track not present in AccurateRip database
Copy OKTrack 3 Filename Z:\Uploads\Face To Face - Protection (2016) [FLAC]\03 - Double Crossed.wav Pre-gap length 0:00:01.03 Peak level 98.8 %
Extraction speed 1.8 X
Track quality 99.9 %
Test CRC 65CA13CF
Copy CRC 65CA13CF
Track not present in AccurateRip database
Copy OKTrack 4 Filename Z:\Uploads\Face To Face - Protection (2016) [FLAC]\04 - See If I Care.wav Peak level 98.8 %
Extraction speed 2.7 X
Track quality 100.0 %
Test CRC A2DEC6E7
Copy CRC A2DEC6E7
Track not present in AccurateRip database
Copy OKTrack 5 Filename Z:\Uploads\Face To Face - Protection (2016) [FLAC]\05 - Say What You Want.wav Pre-gap length 0:00:01.21 Peak level 98.8 %
Extraction speed 3.4 X
Track quality 100.0 %
Test CRC 40FAFA00
Copy CRC 40FAFA00
Track not present in AccurateRip database
Copy OKTrack 6 Filename Z:\Uploads\Face To Face - Protection (2016) [FLAC]\06 - Protection.wav Peak level 98.8 %
Extraction speed 3.6 X
Track quality 100.0 %
Test CRC 62487121
Copy CRC 62487121
Track not present in AccurateRip database
Copy OKTrack 7 Filename Z:\Uploads\Face To Face - Protection (2016) [FLAC]\07 - Fourteen Fifty-Nine (A Hate Song).wav Peak level 98.8 %
Extraction speed 3.7 X
Track quality 100.0 %
Test CRC 5114102C
Copy CRC 5114102C
Track not present in AccurateRip database
Copy OKTrack 8 Filename Z:\Uploads\Face To Face - Protection (2016) [FLAC]\08 - It Almost All Went Wrong.wav Peak level 98.8 %
Extraction speed 3.9 X
Track quality 100.0 %
Test CRC 2F627D32
Copy CRC 2F627D32
Track not present in AccurateRip database
Copy OKTrack 9 Filename Z:\Uploads\Face To Face - Protection (2016) [FLAC]\09 - Keep Your Chin Up.wav Pre-gap length 0:00:01.17 Peak level 98.8 %
Extraction speed 3.4 X
Track quality 99.9 %
Test CRC 26FF4837
Copy CRC 26FF4837
Track not present in AccurateRip database
Copy OKTrack 10 Filename Z:\Uploads\Face To Face - Protection (2016) [FLAC]\10 - Middling Around.wav Peak level 98.8 %
Extraction speed 3.3 X
Track quality 99.9 %
Test CRC 812638A3
Copy CRC 812638A3
Track not present in AccurateRip database
Copy OKTrack 11 Filename Z:\Uploads\Face To Face - Protection (2016) [FLAC]\11 - And So It Goes.wav Peak level 98.8 %
Extraction speed 4.5 X
Track quality 100.0 %
Test CRC CA16C52F
Copy CRC CA16C52F
Track not present in AccurateRip database
Copy OKNone of the tracks are present in the AccurateRip databaseNo errors occurredEnd of status report---- CUETools DB Plugin V2.1.6[CTDB TOCID: TMKpVUDRdTOi3ylAAfBgqZqS2j4-] found
Submit result: TMKpVUDRdTOi3ylAAfBgqZqS2j4- has been confirmed
Track | CTDB Status
1 | (3/3) Accurately ripped
2 | (3/3) Accurately ripped
3 | (3/3) Accurately ripped
4 | (3/3) Accurately ripped
5 | (3/3) Accurately ripped
6 | (3/3) Accurately ripped
7 | (3/3) Accurately ripped
8 | (3/3) Accurately ripped
9 | (3/3) Accurately ripped
10 | (3/3) Accurately ripped
11 | (3/3) Accurately ripped==== Log checksum 10980C659B03B389C1E9C2BB0289B233BA4F5B0F86EB7415C397034261602CF6 ====
-

Индексная карта (non-compilant .cue)

REM GENRE "Punk Rock"
REM DATE 2016
REM DISCID 8C08000B
REM COMMENT "ExactAudioCopy v1.1"
PERFORMER "Face To Face"
TITLE "Protection"
FILE "01 - Bent But Not Broken.wav" WAVE
TRACK 01 AUDIO
TITLE "Bent But Not Broken"
PERFORMER "Face To Face"
INDEX 01 00:00:00
FILE "02 - I Won't Say I'm Sorry.wav" WAVE
TRACK 02 AUDIO
TITLE "I Won't Say I'm Sorry"
PERFORMER "Face To Face"
INDEX 01 00:00:00
TRACK 03 AUDIO
TITLE "Double Crossed"
PERFORMER "Face To Face"
INDEX 00 03:26:20
FILE "03 - Double Crossed.wav" WAVE
INDEX 01 00:00:00
FILE "04 - See If I Care.wav" WAVE
TRACK 04 AUDIO
TITLE "See If I Care"
PERFORMER "Face To Face"
INDEX 01 00:00:00
TRACK 05 AUDIO
TITLE "Say What You Want"
PERFORMER "Face To Face"
INDEX 00 03:24:20
FILE "05 - Say What You Want.wav" WAVE
INDEX 01 00:00:00
FILE "06 - Protection.wav" WAVE
TRACK 06 AUDIO
TITLE "Protection"
PERFORMER "Face To Face"
INDEX 01 00:00:00
FILE "07 - Fourteen Fifty-Nine (A Hate Song).wav" WAVE
TRACK 07 AUDIO
TITLE "Fourteen Fifty-Nine (A Hate Song)"
PERFORMER "Face To Face"
INDEX 01 00:00:00
FILE "08 - It Almost All Went Wrong.wav" WAVE
TRACK 08 AUDIO
TITLE "It Almost All Went Wrong"
PERFORMER "Face To Face"
INDEX 01 00:00:00
TRACK 09 AUDIO
TITLE "Keep Your Chin Up"
PERFORMER "Face To Face"
INDEX 00 02:55:71
FILE "09 - Keep Your Chin Up.wav" WAVE
INDEX 01 00:00:00
FILE "10 - Middling Around.wav" WAVE
TRACK 10 AUDIO
TITLE "Middling Around"
PERFORMER "Face To Face"
INDEX 01 00:00:00
FILE "11 - And So It Goes.wav" WAVE
TRACK 11 AUDIO
TITLE "And So It Goes"
PERFORMER "Face To Face"
INDEX 01 00:00:00
-

Скриншот спектра частот

-
Яндекс.Метрика
Рейтинг@Mail.ru