[ Сегодня на трекере фрилич! Идет свободное скачивание без начисления Download ]

Дэдпул / Deadpool (2016) BDRemux [H.264/1080p]

 

Создавать темы 27-Апр-2016 15:18

-Дэдпул / Deadpool (2016) BDRemux [H.264/1080p]«Стань свидетелем, как он кончит»- Производство: США, Канада / 20th Century Fox Film Corporation, Donners" Company, Kinberg Genre
Жанр: фантастика, боевик, комедия, приключения
Режиссер: Тим Миллер
Продюсер: Саймон Кинберг, Райан Рейнольдс, Лорен Шулер Доннер
Актеры: Райан Рейнольдс, Морена Баккарин, Эд Скрейн, ТиДжей Миллер, Джина Карано, Брианна Хилдебранд, Стефан Капичич, Лесли Уггэмс, Джед Риис, Каран Сони, Майкл Беняер, Стайл Дэйн, Кайл Кэсси, Тэйлор Хиксон, Айзи, Наика Туссэн, Рендал Ридер, Айзек С. Синглтон мл., Джастин Шиппелт, Донна Ямамото
Описание:
Уэйд Уилсон — наёмник. Будучи побочным продуктом программы вооружённых сил под названием «Оружие X», Уилсон приобрёл невероятную силу, проворство и способность к исцелению. Но страшной ценой: его клеточная структура постоянно меняется, а здравомыслие сомнительно. Всё, чего Уилсон хочет, — это держаться на плаву в социальной выгребной яме. Но течение в ней слишком быстрое.
Возраст: 18+ (зрителям, достигшим 18 лет. запрещено для детей)
Рейтинг MPAA: R (лицам до 17 лет обязательно присутствие взрослого)
Дата мировой премьеры: 21 января 2016
Дата российской премьеры: 11 февраля 2016, «Двадцатый Век Фокс СНГ»

Продолжительность: 01:48:42
Качество: BDRemux
Перевод: Дублированный (iTunes), Авторский (одноголосый, закадровый) (Гаевский), Любительский (одноголосый, закадровый) (Zamez)
Вид субтитров: Вшитые, отключаемые
Язык субтитров: Русский, Английский, Украинский
Видео: AVC/H.264, 1920x1080p, (16:9), 23880 kbps, 23,976 fps
Аудио: AC3, 6 ch, 384 kbps - Русский, Дубляж
Аудио: AC3, 2 ch, 192 kbps - Русский, Гаевский
Аудио: AC3, 2 ch, 192 kbps - Русский, Zamez цензурный
Аудио: AC3, 2 ch, 192 kbps - Русский, Zamez ненорматив
Аудио: AC3, 2 ch, 384 kbps - Украинский
Аудио: DTS-HD MA, 8 ch, 4892 kbps - Английский

MediaInfo:

General
Unique ID                                : 249273000926136675758372963794305901974 (0xBB883BD286252B9CB41BB80AA3A76596)
Complete name                            : Deadpool.2016.BDRemux.1080p.bog3417.mkv
Format                                   : Matroska
Format version                           : Version 2
File size                                : 22.6 GiB
Duration                                 : 1h 48mn
Overall bit rate mode                    : Variable
Overall bit rate                         : 29.9 Mbps
Movie name                               : Deadpool.2016.BDRip.720p
Encoded date                             : UTC 2016-04-27 06:47:30
Writing application                      : mkvmerge v7.9.0 ("Birds") 64bit
Writing library                          : libebml v1.3.1 + libmatroska v1.4.2
Attachements                             : cover.jpg
Video
ID                                       : 1
Format                                   : AVC
Format/Info                              : Advanced Video Codec
Format profile                           : [url=mailto:[email protected]][email protected][/url]
Format settings, CABAC                   : Yes
Format settings, ReFrames                : 4 frames
Codec ID                                 : V_MPEG4/ISO/AVC
Duration                                 : 1h 48mn
Bit rate mode                            : Variable
Maximum bit rate                         : 33.0 Mbps
Width                                    : 1 920 pixels
Height                                   : 1 080 pixels
Display aspect ratio                     : 16:9
Frame rate mode                          : Constant
Frame rate                               : 23.976 fps
Color space                              : YUV
Chroma subsampling                       : 4:2:0
Bit depth                                : 8 bits
Scan type                                : Progressive
Default                                  : Yes
Forced                                   : No
Audio #1
ID                                       : 2
Format                                   : AC-3
Format/Info                              : Audio Coding 3
Mode extension                           : CM (complete main)
Format settings, Endianness              : Big
Codec ID                                 : A_AC3
Duration                                 : 1h 48mn
Bit rate mode                            : Constant
Bit rate                                 : 384 Kbps
Channel(s)                               : 6 channels
Channel positions                        : Front: L C R, Side: L R, LFE
Sampling rate                            : 48.0 KHz
Bit depth                                : 16 bits
Compression mode                         : Lossy
Delay relative to video                  : 2s 0ms
Stream size                              : 297 MiB (1%)
Title                                    : DUB biTunesB
Language                                 : Russian
Default                                  : Yes
Forced                                   : No
Audio #2
ID                                       : 3
Format                                   : AC-3
Format/Info                              : Audio Coding 3
Mode extension                           : CM (complete main)
Format settings, Endianness              : Big
Codec ID                                 : A_AC3
Duration                                 : 1h 48mn
Bit rate mode                            : Constant
Bit rate                                 : 192 Kbps
Channel(s)                               : 2 channels
Channel positions                        : Front: L R
Sampling rate                            : 48.0 KHz
Bit depth                                : 16 bits
Compression mode                         : Lossy
Delay relative to video                  : 2s 0ms
Stream size                              : 149 MiB (1%)
Title                                    : AVO bGaevskyB
Language                                 : Russian
Default                                  : No
Forced                                   : No
Audio #3
ID                                       : 4
Format                                   : AC-3
Format/Info                              : Audio Coding 3
Mode extension                           : CM (complete main)
Format settings, Endianness              : Big
Codec ID                                 : A_AC3
Duration                                 : 1h 48mn
Bit rate mode                            : Constant
Bit rate                                 : 192 Kbps
Channel(s)                               : 2 channels
Channel positions                        : Front: L R
Sampling rate                            : 48.0 KHz
Bit depth                                : 16 bits
Compression mode                         : Lossy
Stream size                              : 149 MiB (1%)
Title                                    : Zamez ценз
Language                                 : Russian
Default                                  : No
Forced                                   : No
Audio #4
ID                                       : 5
Format                                   : AC-3
Format/Info                              : Audio Coding 3
Mode extension                           : CM (complete main)
Format settings, Endianness              : Big
Codec ID                                 : A_AC3
Duration                                 : 1h 48mn
Bit rate mode                            : Constant
Bit rate                                 : 192 Kbps
Channel(s)                               : 2 channels
Channel positions                        : Front: L R
Sampling rate                            : 48.0 KHz
Bit depth                                : 16 bits
Compression mode                         : Lossy
Stream size                              : 149 MiB (1%)
Title                                    : Zamez ненорматив
Language                                 : Russian
Default                                  : No
Forced                                   : No
Audio #5
ID                                       : 6
Format                                   : AC-3
Format/Info                              : Audio Coding 3
Mode extension                           : CM (complete main)
Format settings, Endianness              : Big
Codec ID                                 : A_AC3
Duration                                 : 1h 48mn
Bit rate mode                            : Constant
Bit rate                                 : 384 Kbps
Channel(s)                               : 2 channels
Channel positions                        : Front: L R
Sampling rate                            : 48.0 KHz
Bit depth                                : 16 bits
Compression mode                         : Lossy
Delay relative to video                  : 2s 0ms
Stream size                              : 297 MiB (1%)
Language                                 : Ukrainian
Default                                  : No
Forced                                   : No
Audio #6
ID                                       : 7
Format                                   : DTS
Format/Info                              : Digital Theater Systems
Format profile                           : MA / Core
Mode                                     : 16
Format settings, Endianness              : Big
Codec ID                                 : A_DTS
Duration                                 : 1h 48mn
Bit rate mode                            : Variable
Bit rate                                 : Unknown / 1 509 Kbps
Channel(s)                               : 8 channels / 6 channels
Channel positions                        : Front: L C R, Side: L R, Back: L R, LFE / Front: L C R, Side: L R, LFE
Sampling rate                            : 48.0 KHz
Bit depth                                : 24 bits
Compression mode                         : Lossless / Lossy
Language                                 : English
Default                                  : No
Forced                                   : No
Text #1
ID                                       : 8
Format                                   : UTF-8
Codec ID                                 : S_TEXT/UTF8
Codec ID/Info                            : UTF-8 Plain Text
Title                                    : Forced
Language                                 : Russian
Default                                  : Yes
Forced                                   : No
Text #2
ID                                       : 9
Format                                   : UTF-8
Codec ID                                 : S_TEXT/UTF8
Codec ID/Info                            : UTF-8 Plain Text
Language                                 : Russian
Default                                  : No
Forced                                   : No
Text #3
ID                                       : 10
Format                                   : UTF-8
Codec ID                                 : S_TEXT/UTF8
Codec ID/Info                            : UTF-8 Plain Text
Title                                    : Forced
Language                                 : Ukrainian
Default                                  : No
Forced                                   : No
Text #4
ID                                       : 11
Format                                   : UTF-8
Codec ID                                 : S_TEXT/UTF8
Codec ID/Info                            : UTF-8 Plain Text
Language                                 : Ukrainian
Default                                  : No
Forced                                   : No
Text #5
ID                                       : 12
Format                                   : UTF-8
Codec ID                                 : S_TEXT/UTF8
Codec ID/Info                            : UTF-8 Plain Text
Language                                 : English
Default                                  : No
Forced                                   : No
Menu
00:00:00.000                             : en:1
00:03:02.724                             : en:2
00:05:51.017                             : en:3
00:09:28.818                             : en:4
00:13:17.087                             : en:5
00:16:46.713                             : en:6
00:20:10.541                             : en:7
00:22:04.404                             : en:8
00:27:07.623                             : en:9
00:31:56.953                             : en:10
00:36:49.704                             : en:11
00:41:04.166                             : en:12
00:44:43.760                             : en:13
00:46:54.599                             : en:14
00:50:08.960                             : en:15
00:53:16.022                             : en:16
00:55:31.032                             : en:17
00:59:05.746                             : en:18
01:03:03.233                             : en:19
01:07:04.432                             : en:20
01:09:13.561                             : en:21
01:12:27.713                             : en:22
01:16:44.386                             : en:23
01:20:41.706                             : en:24
01:25:51.390                             : en:25
01:31:01.783                             : en:26
01:34:44.964                             : en:27
01:39:50.728                             : en:28
Скриншоты:
-Время раздачи: 24/7
Яндекс.Метрика
Рейтинг@Mail.ru