[ Сегодня на трекере фрилич! Идет свободное скачивание без начисления Download ]

Тайны Лауры / The Mysteries of Laura [02x01-12 из 16] (2015) WEBRip | FOX Life

 

Создавать темы 27-Апр-2016 14:36

Название: Тайны Лауры
Оригинальное название: The Mysteries of Laura
Год Выпуска: 2015
Жанр: комедия, криминал, детектив
Выпущено: США
Режиссёр: Майкл Шульц, Чери Ноулан, Бетани Руни
В ролях: Дебра Мессинг, Джош Лукас, Лас Алонсо, Янина Гаванкар, Макс Дженкинс, Марк Уэбстер, Калли Торн, Алисия Джой Пауэлл
Описание: Лаура Даймонд – блестящий детектив из отдела убийств департамента полиции Нью-Йорка. Каждый день ей приходится справляться не только со своей нелегкой работой, но и с сумасшедшей семейной жизнью – у нее двое непослушных мальчиков-близнецов и муж-полицейский, с которым они вот-вот должны развестись..

Качество: WEBRip
Видео: XviD, ~ 1300 Кбит/с, 720x400
Аудио: Русский (AC3, 2 ch, 192 Кбит/с) Професиональный (многоголосый закадровый) (FOX Life)
Продолжительность: 12 х 00:42:00
Субтитры: НетСкриншотыРелиз от:

Внимание! Раздача ведётся путём добавления новых серий

при каждом добавлении создётся новый торрент. Чтобы начать докачку новой серии, пользователям необходимо сделать следующее:
(1) остановить скачивание,
(2) удалить старый торрент у себя из клиента (старые серии удалять не надо),
(3) скачать новый торрент и запустить его у себя в клиенте вместо старого, при этом указать клиенту путь в старую папку куда и должно происходить скачивание новых серий.
Ваш клиент при этом должен произвести хеширование (проверку) старой папки (если не производит сам - помогите ему сделать это), и будет докачивать только те серии которых у вас ещё нет. Старые серии при этом не удаляются, а продолжают раздаваться!
Eсли вы уже удалили старые серии, то предотвратить повторную закачку старых серий можно, отжав галочку в соответсвующих местах при запуске нового торрента.

Mediainfo

General
Complete name The_Mysteries_of_Laura_S02_FOX_Life\The_Mysteries_of_Laura_S02E01_fl.avi
Format : AVI
Format/Info : Audio Video Interleave
File size : 652 MiB
Duration : 42mn 59s
Overall bit rate : 2 120 Kbps
Writing application : VirtualDubMod 1.5.10.2 (build 2540/release)
Writing library : VirtualDubMod build 2540/release
Video
ID : 0
Format : MPEG-4 Visual
Format profile : Advanced [email protected]
Format settings, BVOP : 2
Format settings, QPel : No
Format settings, GMC : No warppoints
Format settings, Matrix : Default (MPEG)
Codec ID : XVID
Codec ID/Hint : XviD
Duration : 42mn 59s
Bit rate : 1 725 Kbps
Width : 720 pixels
Height : 416 pixels
Display aspect ratio : 16:9
Frame rate : 23.976 (24000/1001) fps
Color space : YUV
Chroma subsampling : 4:2:0
Bit depth : 8 bits
Scan type : Progressive
Compression mode : Lossy
Bits/(Pixel*Frame) : 0.240
Stream size : 530 MiB (81%)
Writing library : XviD 73
Audio #1
ID : 1
Format : AC-3
Format/Info : Audio Coding 3
Mode extension : CM (complete main)
Format settings, Endianness : Big
Codec ID : 2000
Duration : 42mn 59s
Bit rate mode : Constant
Bit rate : 192 Kbps
Channel(s) : 2 channels
Channel positions : Front: L R
Sampling rate : 48.0 KHz
Frame rate : 31.250 fps (1536 spf)
Compression mode : Lossy
Stream size : 59.0 MiB (9%)
Alignment : Split accross interleaves
Interleave, duration : 64 ms (1.53 video frames)
Interleave, preload duratio : 500 ms
Audio #2
ID : 2
Format : AC-3
Format/Info : Audio Coding 3
Mode extension : CM (complete main)
Format settings, Endianness : Big
Codec ID : 2000
Duration : 42mn 59s
Bit rate mode : Constant
Bit rate : 192 Kbps
Channel(s) : 2 channels
Channel positions : Front: L R
Sampling rate : 48.0 KHz
Frame rate : 31.250 fps (1536 spf)
Compression mode : Lossy
Stream size : 59.0 MiB (9%)
Alignment : Split accross interleaves
Interleave, duration : 64 ms (1.53 video frames)
Interleave, preload duratio : 500 ms

_________________
Подпись отключена за нарушение правил форума
Яндекс.Метрика
Рейтинг@Mail.ru