[ Сегодня на трекере фрилич! Идет свободное скачивание без начисления Download ]

Джейн берет ружье / Jane Got a Gun (Гэвин О’Коннор / Gavin O'Connor) [2015 г., боевик, драма, вестерн, BDRip, 1080p] Dub + Original (Eng) + Sub (Eng)

 

Создавать темы 27-Апр-2016 02:56

-Джейн берет ружье / Jane Got a Gun
«She turned to her past to protect her family.»
-- Производство: США
Год выпуска: 2015 г.
Жанр: боевик, драма, вестерн
Продолжительность: 01:37:59Перевод: Профессиональный (полное дублирование) [Blu-ray RUS]
Оригинальный аудиопоток: английскийРежиссер: Гэвин О’Коннор / Gavin O'Connor-В ролях: Натали Портман, Джоэл Эдгертон, Юэн МакГрегор, Ноа Эммерик, Бойд Холбрук, Родриго Санторо, Джеймс Барнетт, Сэм Куинн, , Дженни Гэбриэлль-Описание: Головорезы МакКэна преследуют попытавшегося отбиться от банды Хэма. Изрешеченный пулями, он укрывается на ранчо своей красавицы-жены Джейн. Ей приходится обратиться за защитой к тому, кого она хотела бы видеть меньше всего, - к своему бывшему любовнику. Джейн нужно забыть прошлое, совладать с чувствами и стать сильной и бескомпромиссной, чтобы спасти семью от расправы банды наемников.- -Качество видео: BDRip
Источник: 1080p Blu-ray AVC DTS-HD MA 5.1-MTeam
Контейнер: MKV
Стандарт разрешения: 1080p
Видео кодек: H.264/AVC
Аудио кодек: DTS
Видео: 1920x800 at 23.976 fps, ~12.8 Mbps avg
Аудио: Russian: 48 kHz, DTS, 3/2 (L,C,R,l,r) + LFE ch, ~1536.00 kbps avg |Дубляж, Blu-ray RUS|
Аудио #2: English: 48 kHz, DTS, 3/3 (L,C,R,l,c,r) + LFE ch, ~1536.00 kbps avg
Cубтитры: English, English (SDH)

Знаете ли вы, что...

• Оригинальный сценарий к фильму Брайана Даффилда попал в «Чёрный список лучших неспродюсированных сценариев 2011-го года».
• На роль Дэна Фроста вначале был утверждён Майкл Фассбендер, но он покинул проект из-за конфликта с режиссёром Линн Рэмси. Начало съёмок было запланировано на определённый день, однако Рэмси на съёмки не пришла. Меньше чем через сутки режиссёром был назначен Гэвин О'Коннор, и работа над фильмом пошла по графику.
• Съёмки фильма проходили в начале 2013 года, однако премьерный показ назначен на февраль 2016 года, спустя почти три года по окончании съёмок. За это время актёр Джоэл Эдгертон написал сценарий, снял в качестве режиссёра, спродюсировал и выпустил на экран фильм «Подарок» (2015).
• Роль Джейн одно время предназначалась актрисе Карен Гиллан.
• В роли главного отрицательного персонажа был утверждён Брэдли Купер, но ему пришлось отказаться из-за плотного графика съёмок в других проектах. На его место рассматривались кандидатуры Тоби Магуайра, Джозефа Гордона-Левитта и Тома Хиддлстона. Джейк Джилленхол сразу отверг предложение сняться в этой роли.
• Замена Линн Рэмси другим режиссёром привела к уходу из актёрского состава Джуда Лоу, который заявил, что согласился участвовать в проекте только из-за возможности поработать с Рэмси. Роль, на которую Лоу был утверждён, должен был сыграть Брэдли Купер.
• Первая совместная работа Натали Портман и Юэна МакГрегора за пределами кинематографической вселенной «Звёздных войн» и четвёртая работа, где они выступили на съёмочной площадке партнёрами. Это первый фильм, в котором они снялись вместе почти за 10 лет.
Натали и Юэн вместе снимались в приквелах саги «Звёздные войны» в ролях Падме Амидалы и Оби-Вана Кеноби.
• Знаменитый оператор Дариус Хонджи покинул проект в знак солидарности с Линн Рэмси.
• Линн Рэмси ушла из проекта «Джейн берёт ружьё» (2016) перед самым началом съёмок и после трёхдневного противостояния с продюсером и спонсором Скоттом Стайндорффом в марте 2013 года. Рэмси жаловалась на неподобающее поведение продюсера, который в самый последний момент пытался навязать ей невозможный график съёмок и в то же время планировал отлучить её от окончательного монтажа фильма. Рэмси заявила, что ей обещали совершенно другое, и покинула проект. Ей был обещан оклад в 750 000 долларов за съёмки плюс премиальные (она ещё никогда не получала таких денег), однако Рэмси ушла из-за невозможности снимать фильм так, как это виделось ей, а не продюсерам. В ноябре 2013 года на Рэмси был подан судебный иск о невыполнении условий контракта, но в марте 2014 года дело разрешилось во внесудебном порядке. Продюсеры заявили, что больше не станут требовать со знаменитого режиссёра 850 000 долларов (или 512 000 фунтов стерлингов) компенсации за причинённый ущерб и выплаченный аванс.
• На роль Дэна Фроста изначально планировался Майкл Фассбендер, а на роль Джона Бишопа - Джоэл Эдгертон. Из-за задержки с началом съёмок Фассбендеру пришлось уйти из проекта, так как он уже был занят в съёмках фильма «Люди Икс: Дни минувшего будущего». Эдгертону досталась роль Дэна Фроста, а Бишопа согласился сыграть Джуд Лоу, который в последующем покинул проект.
• На роль Джона Бишопа рассматривались актёры Джейк Джилленхол, Тоби Магуайр и Джефф Бриджес.
• Фильм «Джейн берёт ружьё» считается очень вольным переложением истории, рассказанной в фильме «Ханни Колдер» (1971). Здесь главная героиня, мужа которой похитили бандиты, обращается за помощью к бывшему любовнику. В фильме «Ханни Колдер» женщина, у которой бандиты убили мужа, а саму её изнасиловали, обращается к стрелку-одиночке с просьбой научить её обращаться с оружием.
• Роль Джейн Хаммонд исполнила Натали Портман. В фильме ««V» значит Вендетта» (2005) её героиню зовут Иви Хэммонд, в фильмах «Тор» (2011) и «Тор 2: Царство тьмы» (2013) она исполняет роль персонажа по имени Джейн Фостер, а в в фильме «Близость» (2004) её героиня называет себя Джейн Джонс.
• После нескольких переносов парижская премьера фильма в мультиплексе и кинотеатре «UGC Normandie» была назначена на 16 ноября 2015 года, а 25 ноября фильм должен был выйти во Франции в широкий прокат. Ввиду терактов во французской столице 13 ноября была отменена как премьера, так и серия интервью в связи с выходом фильма. Выход фильма «Джейн берёт ружьё» был перенесён на начало 2016 года.
• Третий фильм, где вместе снялись Натали Портман, Юэн МакГрегор и Джоэл Эдгертон. Первыми двумя стали II и III эпизоды «Звёздных войн».
• Второй фильм, где снялись вместе Натали Портман и Ноа Эммерих. Почти 20 лет назад, когда Портман была ещё подростком, а Эммериху было за 30, они снимались в фильме «Красивые девушки» (1996). На этот раз они сыграли супружескую пару.

Media Info

Код:
Format                      : Matroska
Format version              : Version 4 / Version 2
File size                   : 11.1 GiB
Duration                    : 1h 37mn
Overall bit rate            : 16.2 Mbps
Movie name                  : Jane Got a Gun (2015)
Encoded date                : UTC 2016-04-26 05:40:11
Writing application         : mkvmerge v6.0.0 ('Coming Up For Air') built on Jan 20 2013 09:52:00
Writing library             : libebml v1.3.0 + libmatroska v1.4.0Video
ID                          : 1
Format                      : AVC
Format/Info                 : Advanced Video Codec
Format profile              : [email protected]/*  */
Format settings, CABAC      : Yes
Format settings, ReFrames   : 5 frames
Codec ID                    : V_MPEG4/ISO/AVC
Duration                    : 1h 37mn
Bit rate                    : 12.8 Mbps
Width                       : 1 920 pixels
Height                      : 800 pixels
Display aspect ratio        : 2.40:1
Frame rate mode             : Constant
Frame rate                  : 23.976 fps
Color space                 : YUV
Chroma subsampling          : 4:2:0
Bit depth                   : 8 bits
Scan type                   : Progressive
Bits/(Pixel*Frame)          : 0.348
Stream size                 : 8.78 GiB (79%)
Writing library             : x264 core 142 r2431+42 c69a006 tMod [[email protected]/*  */ X86_64]
Encoding settings           : cabac=1 / ref=5 / deblock=1:-3:-3 / analyse=0x3:0x133 / me=umh / subme=11 / psy=1 / fade_compensate=0.00 / psy_rd=1.05:0.00 / mixed_ref=1 / me_range=32 / chroma_me=1 / trellis=2 / 8x8dct=1 / cqm=0 / deadzone=21,11 / fast_pskip=0 / chroma_qp_offset=-2 / threads=12 / lookahead_threads=2 / sliced_threads=0 / nr=0 / decimate=0 / interlaced=0 / bluray_compat=0 / constrained_intra=0 / fgo=0 / bframes=8 / b_pyramid=2 / b_adapt=2 / b_bias=0 / direct=3 / weightb=1 / open_gop=0 / weightp=2 / keyint=250 / keyint_min=23 / scenecut=40 / intra_refresh=0 / rc_lookahead=60 / rc=crf / mbtree=0 / crf=17.0000 / qcomp=0.65 / qpmin=0:0:0 / qpmax=69:69:69 / qpstep=4 / vbv_maxrate=62500 / vbv_bufsize=78125 / crf_max=0.0 / nal_hrd=none / filler=0 / ip_ratio=1.30 / pb_ratio=1.20 / aq=3:0.70 / aq-sensitivity=10.00 / aq-factor=1.00:1.00:1.00 / aq2=0 / aq3=0 / zones=25,217,crf=15/4341,4370,crf=14/14886,14981,crf=14/19639,19766,crf=14/73799,73870,crf=14/75964,76071,crf=15/77804,77869,crf=14/132820,140740,crf=20
Language                    : English
Default                     : Yes
Forced                      : No
Matrix coefficients         : BT.709
Color range                 : LimitedAudio #1
ID                          : 2
Format                      : DTS
Format/Info                 : Digital Theater Systems
Mode                        : 16
Format settings, Endianness : Big
Codec ID                    : A_DTS
Duration                    : 1h 37mn
Bit rate mode               : Constant
Bit rate                    : 1 510 Kbps
Channel(s)                  : 6 channels
Channel positions           : Front: L C R, Side: L R, LFE
Sampling rate               : 48.0 KHz
Bit depth                   : 24 bits
Compression mode            : Lossy
Stream size                 : 1.03 GiB (9%)
Language                    : Russian
Default                     : Yes
Forced                      : NoAudio #2
ID                          : 3
Format                      : DTS
Format/Info                 : Digital Theater Systems
Mode                        : 16
Format settings, Endianness : Big
Codec ID                    : A_DTS
Duration                    : 1h 37mn
Bit rate mode               : Constant
Bit rate                    : 1 509 Kbps
Channel(s)                  : 6 channels
Channel positions           : Front: L C R, Side: L R, LFE
Sampling rate               : 48.0 KHz
Bit depth                   : 24 bits
Compression mode            : Lossy
Stream size                 : 1.03 GiB (9%)
Language                    : English
Default                     : No
Forced                      : NoText #1
ID                          : 4
Format                      : UTF-8
Codec ID                    : S_TEXT/UTF8
Codec ID/Info               : UTF-8 Plain Text
Language                    : English
Default                     : No
Forced                      : NoText #2
ID                          : 5
Format                      : UTF-8
Codec ID                    : S_TEXT/UTF8
Codec ID/Info               : UTF-8 Plain Text
Title                       : SDH
Language                    : English
Default                     : No
Forced                      : NoMenu
00:00:00.000                : en:00:00:00.000
00:04:08.206                : en:00:04:08.206
00:09:51.633                : en:00:09:51.633
00:15:45.403                : en:00:15:45.403
00:23:51.847                : en:00:23:51.847
00:30:41.506                : en:00:30:41.506
00:35:32.422                : en:00:35:32.422
00:41:13.805                : en:00:41:13.805
00:47:19.712                : en:00:47:19.712
00:53:17.653                : en:00:53:17.653
01:00:59.030                : en:01:00:59.030
01:09:51.771                : en:01:09:51.771
01:17:42.825                : en:01:17:42.825
01:23:30.547                : en:01:23:30.547
01:27:11.685                : en:01:27:11.685
01:31:18.848                : en:01:31:18.848

Скриншоты

Яндекс.Метрика
Рейтинг@Mail.ru