[ Сегодня на трекере фрилич! Идет свободное скачивание без начисления Download ]

(Symphonic Power Meta ) Almanac - Tsar - 2016 [FLAC, image+.cue, lossless]

 

Создавать темы 27-Апр-2016 02:48

-Almanac - Tsar-- Год издания: 2016
Страна: International
Жанр: Symphonic Power Meta
Продолжительность: 52:21-Лейбл издания: Nuclear Blast
Тип альбома: Master
Страна-выпуска диска: USA
Номер по каталогу: 27361 35760
Источник (релизер): RMT-Формат: FLAC
Битрейт аудио: lossless
Тип рипа: image+.cue
Наличие сканов в содержимом раздачи: да-

Трэклист

01. Tsar
02. Self-Blinded Eyes
03. Darkness
04. Hands Are Tied
05. Children Of The Future
06. No More Shadows
07. Nevermore
08. Reign Of Madness
09. Flames Of Fate
-

Лог создания рипа

Exact Audio Copy V1.1 from 23. June 2015EAC extraction logfile from 1. April 2016, 19:13Almanac / TsarUsed drive : ATAPI iHAS122 W Adapter: 2 ID: 0Read mode : Secure
Utilize accurate stream : Yes
Defeat audio cache : Yes
Make use of C2 pointers : NoRead offset correction : 48
Overread into Lead-In and Lead-Out : No
Fill up missing offset samples with silence : Yes
Delete leading and trailing silent blocks : No
Null samples used in CRC calculations : Yes
Used interface : Installed external ASPI interfaceUsed output format : User Defined Encoder
Selected bitrate : 1024 kBit/s
Quality : High
Add ID3 tag : No
Command line compressor : C:\Program Files\FLAC\flac.exe
Additional command line options : -V -8 -T "Date=%year%" -T "Genre=%genre%" -T"COMMENT=Ripped by Ilijan" -8 -V %source%TOC of the extracted CD Track | Start | Length | Start sector | End sector
---------------------------------------------------------
1 | 0:00.00 | 7:48.08 | 0 | 35107
2 | 7:48.08 | 6:00.56 | 35108 | 62163
3 | 13:48.64 | 1:17.40 | 62164 | 67978
4 | 15:06.29 | 5:48.08 | 67979 | 94086
5 | 20:54.37 | 5:19.57 | 94087 | 118068
6 | 26:14.19 | 8:19.12 | 118069 | 155505
7 | 34:33.31 | 4:40.43 | 155506 | 176548
8 | 39:13.74 | 6:31.63 | 176549 | 205936
9 | 45:45.62 | 6:35.50 | 205937 | 235611Range status and errorsSelected range Filename D:\ilко\Almanac - Tsar.wav Peak level 97.7 %
Extraction speed 3.9 X
Range quality 100.0 %
Test CRC A51F225C
Copy CRC A51F225C
Copy OKNo errors occurredAccurateRip summaryTrack 1 not present in database
Track 2 not present in database
Track 3 not present in database
Track 4 not present in database
Track 5 not present in database
Track 6 not present in database
Track 7 not present in database
Track 8 not present in database
Track 9 not present in databaseNone of the tracks are present in the AccurateRip databaseEnd of status report---- CUETools DB Plugin V2.1.6[CTDB TOCID: bkZNoffCyHDfMoCeXSRT9egUY34-] found
Submit result: bkZNoffCyHDfMoCeXSRT9egUY34- has been confirmed
Track | CTDB Status
1 | (13/13) Accurately ripped
2 | (13/13) Accurately ripped
3 | (13/13) Accurately ripped
4 | (13/13) Accurately ripped
5 | (13/13) Accurately ripped
6 | (13/13) Accurately ripped
7 | (13/13) Accurately ripped
8 | (13/13) Accurately ripped
9 | (12/13) Accurately ripped==== Log checksum 8D6F1F7F0BF2348720E32B50BC1A577151556AC449CD68B73907CC5B2B841485 ====
-

Индексная карта (non-compilant .cue)

REM GENRE "Symphonic Power Metal"
REM DATE 2016
REM COMMENT "2016, Europe, First Press, Limited Edition, Digibook"
PERFORMER "Almanac"
TITLE "Tsar"
FILE "Almanac - Tsar.flac" WAVE
TRACK 01 AUDIO
TITLE "Tsar"
PERFORMER "Almanac"
INDEX 01 00:00:00
TRACK 02 AUDIO
TITLE "Self-Blinded Eyes"
PERFORMER "Almanac"
INDEX 01 07:48:08
TRACK 03 AUDIO
TITLE "Darkness"
PERFORMER "Almanac"
INDEX 01 13:48:64
TRACK 04 AUDIO
TITLE "Hands Are Tied"
PERFORMER "Almanac"
INDEX 01 15:06:29
TRACK 05 AUDIO
TITLE "Children Of The Future"
PERFORMER "Almanac"
INDEX 01 20:54:37
TRACK 06 AUDIO
TITLE "No More Shadows"
PERFORMER "Almanac"
INDEX 01 26:14:19
TRACK 07 AUDIO
TITLE "Nevermore"
PERFORMER "Almanac"
INDEX 01 34:33:31
TRACK 08 AUDIO
TITLE "Reign Of Madness"
PERFORMER "Almanac"
INDEX 01 39:13:74
TRACK 09 AUDIO
TITLE "Flames Of Hate"
PERFORMER "Almanac"
INDEX 01 45:45:62
-

Скриншот спектра частот

-

YouTube

-
Яндекс.Метрика
Рейтинг@Mail.ru