Джем и голограммы / Jem and the Holograms (Джон М. Чу / Jon Chu) [2015 г., Фэнтези, драма, приключения, музыка, HDRip] Dub

 

Создавать темы 27-Апр-2016 02:44

-Джем и голограммы / Jem and the Holograms-- Производство: США, Allspark Pictures, Blumhouse Productions, Chu Studios, Hasbro Inc., Hasbro Studios, Scooter Braun Films, Universal Pictures
Год выпуска: 2015 г.
Жанр: Фэнтези, драма, приключения, музыка
Продолжительность: 01:58:33Мировая премьера: 22 октября 2015
Перевод: Профессиональный (полное дублирование) [iTunes]
Режиссер: Джон М. Чу / Jon Chu-В ролях: Обри Пиплз, Стефани Скотт, Аврора Периньо, Хейли Кийоко, Молли Рингуолд, Изабелла Кай Райс, Барнеби Карпентер, Джейсон Кеннеди, Нэйтан Мур, Джульетт Льюис-Описание: Юная Джерика Бентон и три её сестры (родная и две сводные) живут в небольшом городке, пишут песни и поют в любительской группе «Джем и голограммы». Однажды одна из них выложит клип группы на youtube, и их жизнь изменится навсегда. Выдержат ли девчонки испытание славой?-
Качество видео: HDRip
Контейнер: AVI
Видео кодек: XviD
Аудио кодек: AC3
Видео: 720x304 (2.37:1), 23.976 fps, XviD build 50 ~1860 kbps avg, 0.35 bit/pixel
Аудио: 48 kHz, AC3 Dolby Digital, 3/2 (L,C,R,l,r) + LFE ch, ~384 kbps
Аудио #2: 48 kHz, AC3 Dolby Digital, 3/2 (L,C,R,l,r) + LFE ch, ~384 kbps
Cубтитры: отсутствуют

Доп. информация

Джем и Голограммы (англ. Jem and the Holograms) — американский музыкальный фантастический фильм, снятый по мотивам одноименной серии игрушек и анимационного телесериала, который шел в США с 1985 по 1988 годы. Режиссером картины стал Джон М. Чу, а автором сценария Райан Ланделс. Премьера в США — 23 октября 2015.
Производство:
После недавнего успеха «Броска кобры» и «Трансформеров» компания Hasbro собралась выпустить художественный фильм совместно с Universal Studios, с которой Hasbro подписала контракт на производство шести фильмов в 2010. 20 марта 2014 было объявлено о готовящейся киноверсии анимационного сериала «Джем и голограммы», режиссером которой стал Джон М.Чу. 21 марта стало известно, что автор сценария оригинального сериала про Джем, Кристи Маркс, не будет задействована в производстве картины. 20октября 2014 Hasbro Studios объявили о создании нового продюсерского подразделения Allspark Pictures, специально для работы над фильмом про Джем, а также над проектом о маленьких пони, запланированном на 2017.
Актерский состав:
В апреле было объявлено о том, что роль Джем исполнит Обри Пиплз, Стефани Скотт сыграет Кимбер, Хейли Кийоко станет Айей, а Аврора Перриньо перевоплотится в Шану. 30 апреля к команде присоединился Райан Гузман, а 19 мая на съемочную площадку пришла Джульетт Льюис. Молли Рингуолд подтвердила своё участие в съемках 20 мая.
Съемки:
Съемки начались 22 апреля 2014 года в калифорнийском городе Ван-Найс, а 19 мая группа переместилась в Лос-Анджелес.Завершились съемки 24 мая 2014.

Трейлер

Media Info

Формат : AVI
Формат/Информация : Audio Video Interleave
Профиль формата : OpenDML
Размер файла : 2,18 Гбайт
Продолжительность : 1 ч. 58 м.
Общий поток : 2635 Кбит/сек
Название фильма : Jem and the Holograms.[pirat.ca]
Программа кодирования : VirtualDubMod 1.5.10.2 (build 2540/release)Видео
Идентификатор : 0
Формат : MPEG-4 Visual
Профиль формата : Advanced [email protected]/* */
Параметр BVOP формата : 2
Параметр QPel формата : Нет
Параметр GMC формата : Без точки перехода
Параметр матрицы формата : Default (MPEG)
Идентификатор кодека : XVID
Идентификатор кодека/Подсказка : XviD
Продолжительность : 1 ч. 58 м.
Битрейт : 1850 Кбит/сек
Ширина : 720 пикселей
Высота : 304 пикселя
Соотношение сторон : 2,35:1
Частота кадров : 23,976 (24000/1001) кадра/сек
Цветовое пространство : YUV
Субдискретизация насыщенности : 4:2:0
Битовая глубина : 8 бит
Тип развёртки : Прогрессивная
Метод сжатия : С потерями
Бит/(Пиксели*Кадры) : 0.352
Размер потока : 1,53 Гбайт (70%)
Библиотека кодирования : XviD 1.2.1 (UTC 2008-12-04)Аудио #1
Идентификатор : 1
Формат : AC-3
Формат/Информация : Audio Coding 3
Расширение режима : CM (complete main)
Параметр Endianness формата : Big
Идентификатор кодека : 2000
Продолжительность : 1 ч. 58 м.
Вид битрейта : Постоянный
Битрейт : 384 Кбит/сек
Каналы : 6 каналов
Расположение каналов : Front: L C R, Side: L R, LFE
Частота : 48,0 КГц
Частота кадров : 31,250 кадров/сек (1536 spf)
Метод сжатия : С потерями
Задержка видео : 9 мс.
Размер потока : 325 Мбайт (15%)
Выравнивание : Разделение по промежуткам
Продолжительность промежутка : 42 мс. (1,00 видеокадр)
Время предзагрузки промежутка : 500 мс.Аудио #2
Идентификатор : 2
Формат : AC-3
Формат/Информация : Audio Coding 3
Расширение режима : CM (complete main)
Параметр Endianness формата : Big
Идентификатор кодека : 2000
Продолжительность : 1 ч. 58 м.
Вид битрейта : Постоянный
Битрейт : 384 Кбит/сек
Каналы : 6 каналов
Расположение каналов : Front: L C R, Side: L R, LFE
Частота : 48,0 КГц
Частота кадров : 31,250 кадров/сек (1536 spf)
Метод сжатия : С потерями
Размер потока : 326 Мбайт (15%)
Выравнивание : Разделение по промежуткам
Продолжительность промежутка : 42 мс. (1,00 видеокадр)
Время предзагрузки промежутка : 500 мс.

Скриншот c названием фильма

Скриншоты

Яндекс.Метрика
Рейтинг@Mail.ru