Крид: Наследие Рокки / Creed (2015) BDRip 720p | iTunes

 

Создавать темы 26-Апр-2016 22:41

Крид: Наследие Рокки / Creed Год выхода: 2015
Жанр: Драма, спорт
Режиссер: Райан Куглер
В ролях:
Майкл Б. Джордан, Сильвестр Сталлоне, Тесса Томпсон, Филисия Рашад, Андре Уорд, Тони Белью, Ричи Костер, Джейкоб ’Стич’ Дюран, Грэм МакТавиш, Вуд Харрис, Брайан Энтони Уилсон, Джои Эй, Кэш Гойнс, Кевин Кинг Темплтон, Лерой Уилсон мл., Маурицио Овейлл, Марк Смит, Джосу Ривера, Ганс Марреро, Мэнни Айала
О фильме:
Адонис Джонсон бросает престижную работу в фешенебельном офисе и с головой окунается в прелести боксерских поединков, повинуясь зову генетической памяти. Он - внебрачный сын Аполло Крида, ставшего первым серьезным испытанием на боксерском ринге для Рокки Бальбоа и, впоследствии, его лучшим другом. Молодой человек обращается за помощью к легендарному ветерану, который вовсе не горит желанием возвращаться в слегка подзабытый мир профессионального бокса в качестве тренера и наставника.

Выпущено: США / Chartoff-Winkler Productions, Metro-Goldwyn-Mayer (MGM), New Line Cinema, Warner Bros. Pictures
Продолжительность: 02:13:10
Перевод: Дублированный [iTunes]
Файл
Формат: MKV
Качество: BDRip 720p
Видео: MPEG-4 AVC, 5845 kb/s, 1280x534
Аудио: Russian: AC3, 384 kb/s (6 ch) / English: AC3, 640 kb/s (6 ch)
Субтитры: Russian, English

MI

Общее
Уникальный идентификатор                 : 199236686139033848824919414192069668525 (0x95E397094B415662BF5A441D94A3EEAD)
Полное имя                               : D:загрузкиCreed.2015.D.BluRay.720p.mkv
Формат                                   : Matroska
Версия формата                           : Version 4 / Version 2
Размер файла                             : 6,50 Гбайт
Продолжительность                        : 2 ч. 13 м.
Общий поток                              : 6987 Кбит/сек
Название фильма                          : Creed.2015.D.BluRay.720p.mkv
Дата кодирования                         : UTC 2016-04-25 20:34:19
Программа кодирования                    : mkvmerge v8.3.0 ('Over the Horizon') 64bit
Библиотека кодирования                   : libebml v1.3.1 + libmatroska v1.4.2
DURATION                                 : 02:11:54.827000000
NUMBER_OF_FRAMES                         : 2171
NUMBER_OF_BYTES                          : 67606
_STATISTICS_WRITING_APP                  : mkvmerge v8.3.0 ('Over the Horizon') 64bit
_STATISTICS_WRITING_DATE_UTC             : 2016-04-25 20:34:19
_STATISTICS_TAGS                         : BPS DURATION NUMBER_OF_FRAMES NUMBER_OF_BYTES
Видео
Идентификатор                            : 1
Формат                                   : AVC
Формат/Информация                        : Advanced Video Codec
Профиль формата                          : [email protected]
Параметр CABAC формата                   : Да
Параметр ReFrames формата                : 12 кадров
Идентификатор кодека                     : V_MPEG4/ISO/AVC
Продолжительность                        : 2 ч. 13 м.
Битрейт                                  : 5824 Кбит/сек
Ширина                                   : 1280 пикселей
Высота                                   : 534 пикселя
Соотношение сторон                       : 2,40:1
Режим частоты кадров                     : Постоянный
Частота кадров                           : 23,976 кадра/сек
Цветовое пространство                    : YUV
Субдискретизация насыщенности            : 4:2:0
Битовая глубина                          : 8 бит
Тип развёртки                            : Прогрессивная
Бит/(Пиксели*Кадры)                      : 0.355
Размер потока                            : 5,42 Гбайт (83%)
Заголовок                                : Creed.2015.BluRay.720p.DTS.x264-Murtini
Библиотека кодирования                   : x264 core 146 r2538 121396c
Настройки программы                      : cabac=1 / ref=12 / deblock=1:-2:-1 / analyse=0x3:0x133 / me=umh / subme=11 / psy=1 / psy_rd=1.05:0.10 / mixed_ref=1 / me_range=32 / chroma_me=1 / trellis=2 / 8x8dct=1 / cqm=0 / deadzone=21,11 / fast_pskip=0 / chroma_qp_offset=-4 / threads=6 / lookahead_threads=1 / sliced_threads=0 / nr=0 / decimate=1 / interlaced=0 / bluray_compat=0 / constrained_intra=0 / bframes=9 / b_pyramid=2 / b_adapt=2 / b_bias=0 / direct=1 / weightb=1 / open_gop=0 / weightp=2 / keyint=230 / keyint_min=21 / scenecut=40 / intra_refresh=0 / rc_lookahead=60 / rc=crf / mbtree=0 / crf=17.0 / qcomp=0.70 / qpmin=0 / qpmax=69 / qpstep=4 / vbv_maxrate=30000 / vbv_bufsize=40000 / crf_max=0.0 / nal_hrd=none / filler=0 / ip_ratio=1.35 / pb_ratio=1.25 / aq=2:0.90
Язык                                     : English
Default                                  : Да
Forced                                   : Нет
DURATION                                 : 02:13:10.024000000
NUMBER_OF_FRAMES                         : 191569
NUMBER_OF_BYTES                          : 5954662424
_STATISTICS_WRITING_APP                  : mkvmerge v8.3.0 ('Over the Horizon') 64bit
_STATISTICS_WRITING_DATE_UTC             : 2016-04-25 20:34:19
_STATISTICS_TAGS                         : BPS DURATION NUMBER_OF_FRAMES NUMBER_OF_BYTES
Аудио #1
Идентификатор                            : 2
Формат                                   : AC-3
Формат/Информация                        : Audio Coding 3
Расширение режима                        : CM (complete main)
Параметр Endianness формата              : Big
Идентификатор кодека                     : A_AC3
Продолжительность                        : 2 ч. 13 м.
Вид битрейта                             : Постоянный
Битрейт                                  : 384 Кбит/сек
Каналы                                   : 6 каналов
Расположение каналов                     : Front: L C R, Side: L R, LFE
Частота                                  : 48,0 КГц
Битовая глубина                          : 16 бит
Метод сжатия                             : С потерями
Размер потока                            : 366 Мбайт (5%)
Заголовок                                : iTunes
Язык                                     : Russian
Default                                  : Да
Forced                                   : Нет
Аудио #2
Идентификатор                            : 3
Формат                                   : AC-3
Формат/Информация                        : Audio Coding 3
Расширение режима                        : CM (complete main)
Параметр Endianness формата              : Big
Идентификатор кодека                     : A_AC3
Продолжительность                        : 2 ч. 13 м.
Вид битрейта                             : Постоянный
Битрейт                                  : 640 Кбит/сек
Каналы                                   : 6 каналов
Расположение каналов                     : Front: L C R, Side: L R, LFE
Частота                                  : 48,0 КГц
Битовая глубина                          : 16 бит
Метод сжатия                             : С потерями
Размер потока                            : 610 Мбайт (9%)
Язык                                     : English
Default                                  : Нет
Forced                                   : Нет
Текст #1
Идентификатор                            : 4
Формат                                   : UTF-8
Идентификатор кодека                     : S_TEXT/UTF8
Идентификатор кодека/Информация          : UTF-8 Plain Text
Язык                                     : Russian
Default                                  : Нет
Forced                                   : Нет
Текст #2
Идентификатор                            : 5
Формат                                   : UTF-8
Идентификатор кодека                     : S_TEXT/UTF8
Идентификатор кодека/Информация          : UTF-8 Plain Text
Язык                                     : English
Default                                  : Нет
Forced                                   : Нет
Меню
00:00:00.000                             : en:00:00:00.000
00:09:14.387                             : en:00:09:14.387
00:22:06.742                             : en:00:22:06.742
00:31:31.932                             : en:00:31:31.932
00:41:34.659                             : en:00:41:34.659
00:52:18.010                             : en:00:52:18.010
01:01:32.063                             : en:01:01:32.063
01:09:13.941                             : en:01:09:13.941
01:19:00.986                             : en:01:19:00.986
01:25:13.650                             : en:01:25:13.650
01:32:27.792                             : en:01:32:27.792
01:41:16.445                             : en:01:41:16.445
01:50:14.441                             : en:01:50:14.441
02:01:07.719                             : en:02:01:07.719
02:06:34.962                             : en:02:06:34.962

Скриншоты:

Яндекс.Метрика
Рейтинг@Mail.ru