Дэдпул / Deadpool (2016) WEB-DL 1080p I D

 

Создавать темы 26-Апр-2016 20:08

- Дэдпул / Deadpool (2016) WEB-DL [H.264/1080p] «Стань свидетелем, как он кончит»- Производство: США, Marvel Enterprises, TSG Entertainment, Twentieth Century Fox Film Corporation
Жанр: Фантастика, Боевик
Режиссер: Тим Миллер
Продюсер: Саймон Кинберг, Райан Рейнольдс, Лорен Шулер Доннер
Актеры: Райан Рейнольдс, Морена Баккарин, Джина Карано, ТиДжей Миллер, Эд Скрейн, Рэйчел Шин, Брианна Хилдебранд, Андре Трикоте, Тэйлор Хиксон, Джед Риис
Описание:
Уэйд Уилсон — наемник. Будучи побочным продуктом программы вооруженных сил под названием «Оружие Х», Уилсон приобрел невероятную силу, проворство и исцеляющий фактор. Но страшной ценой: его клеточная структура постоянно меняется, а его здравомыслие сомнительно. Все чего Уилсон хочет — это держаться на плаву в социальной выгребной яме. Но течение в ней слишком быстрое.
Возраст: 18 + (зрителям, достигшим 18 лет. запрещено для детей )
Рейтинг MPAA: R ( лицам до 17 лет обязательно присутствие взрослого)
Дата мировой премьеры: 21 января 2016
Дата премьеры в России: 11 февраля 2016, «Двадцатый Век Фокс СНГ»

Продолжительность: 01:48:41
Качество видео: WEB-DL
Перевод: Дублированный (iTunes), авторский (В. Гаевский)
Субтитры: Русские (полные, форсированные), украинские (полные, форсированные), английские
Видео: AVC, 1912x798 (2.35:1), 23.976 fps, 4 434 Kbps
Аудио: AC-3, 48.0 KHz, 6 ch, 384 Kbps, CBR - (Russian-iTunes)
Аудио: AC-3, 48.0 KHz, 2 ch, 192 Kbps, CBR - (В. Гаевский)
Аудио: AC-3, 48.0 KHz, 2 ch, 384 Kbps, CBR - (Ukrainian-iTunes)
Аудио: AAC LC, 48.0 KHz, 2 ch, 157 Kbps, VBR - (English-Original)

MI

Дэдпул - Deadpool (2016)_WEB-DL.1080p.mkv
Duration: 01:48:42 (6521.69)
Track #1: video
lang: Unknown (1)
codc: V_MPEG4/ISO/AVC -> H264/AVC (22)
reso: 1912x798 -> Unknown (aka not common)
fram: vfr
rate: 4434 kbps (4434.37)
dura: 01:48:42 (6521.65)
size: 3.37 GB (3614926760)
Track #2: audio (DUB [iTunes])
lang: rus -> Russian (15)
codc: A_AC3 -> AC3 (2)
chan: 6 -> 5.1 Surround
samp: 48000 Hz
rate: 384 kbps (384.04)
dura: 01:48:08 (6487.55)
size: 297.00 MB (311432233)
Track #3: audio (AVO [Gaevsky])
lang: rus -> Russian (15)
codc: A_AC3 -> AC3 (2)
chan: 2 -> Stereo
samp: 48000 Hz
rate: 192 kbps (192.04)
dura: 01:48:08 (6487.55)
size: 148.52 MB (155730961)
Track #4: audio
lang: ukr -> Unknown (1)
codc: A_AC3 -> AC3 (2)
chan: 2 -> Stereo
samp: 48000 Hz
rate: 384 kbps (384.04)
dura: 01:48:08 (6487.55)
size: 297.01 MB (311435307)
Track #5: audio
lang: Unknown (1)
codc: A_AAC -> AAC (9)
chan: 2 -> Stereo
samp: 48000 Hz
rate: 157 kbps (156.88)
dura: 01:48:08 (6487.66)
size: 121.33 MB (127226553)
Track #6: subtitles (Forced [iTunes])
lang: rus -> Russian (15)
type: S_TEXT/UTF8 -> SRT (3)
size: 136.00 B (136)
Track #7: subtitles (RUS [iTunes])
lang: rus -> Russian (15)
type: S_TEXT/UTF8 -> SRT (3)
size: 68.79 KB (70443)
Track #8: subtitles (Forced [iTunes])
lang: ukr -> Unknown (1)
type: S_TEXT/UTF8 -> SRT (3)
size: 591.00 B (591)
Track #9: subtitles (UKR [iTunes])
lang: ukr -> Unknown (1)
type: S_TEXT/UTF8 -> SRT (3)
size: 72.96 KB (74710)
Track #10: subtitles (ENG [iTunes])
lang: Unknown (1)
type: S_TEXT/UTF8 -> SRT (3)
size: 43.05 KB (44083)
Sizes: (check sanity)
disk: 4.21 GB (4523330679)
atts: 64.82 KB (66372)
trac: 4.21 GB (4520941777) [based on track size]
bitr: 4.21 GB (4525509751) [based on bitrate]
tdif: 2.21 MB (2322530) 0.05%
bdif: -2.14 MB (-2245444) -0.04%Mediainfo:Формат : Matroska
Версия формата : Version 4 / Version 2
Размер файла : 4,21 Гбайт
Продолжительность : 1 ч. 48 м.
Общий поток : 5549 Кбит/сек
Название фильма : Deadpool..2016..WEB-DL.1080p.ExKinoRay
Дата кодирования : UTC 2016-04-26 12:41:17
Программа кодирования : mkvmerge v8.3.0 ("Over the Horizon") 64bit
Библиотека кодирования : libebml v1.3.1 + libmatroska v1.4.2
Attachements : cover.jpg
DURATION : 01:48:41.687000000
NUMBER_OF_FRAMES : 156364
NUMBER_OF_BYTES : 3614926760
_STATISTICS_WRITING_APP : mkvmerge v8.3.0 ("Over the Horizon") 64bit
_STATISTICS_WRITING_DATE_UTC : 2016-04-26 12:41:17
_STATISTICS_TAGS : BPS DURATION NUMBER_OF_FRAMES NUMBER_OF_BYTES
Видео
Идентификатор : 1
Формат : AVC
Формат/Информация : Advanced Video Codec
Профиль формата : [email protected]
Параметр CABAC формата : Да
Параметр ReFrames формата : 5 кадров
Идентификатор кодека : V_MPEG4/ISO/AVC
Продолжительность : 1 ч. 48 м.
Ширина : 1912 пикселей
Высота : 798 пикселей
Соотношение сторон : 2,40:1
Режим частоты кадров : Постоянный
Частота кадров : 23,976 кадра/сек
Цветовое пространство : YUV
Субдискретизация насыщенности : 4:2:0
Битовая глубина : 8 бит
Тип развёртки : Прогрессивная
Язык : English
Default : Да
Forced : Нет
Цветовой диапазон : Limited
Основные цвета : BT.709
Характеристики трансфера : BT.709
Коэффициенты матрицы : BT.709
Аудио #1
Идентификатор : 2
Формат : AC-3
Формат/Информация : Audio Coding 3
Расширение режима : CM (complete main)
Параметр Endianness формата : Big
Идентификатор кодека : A_AC3
Продолжительность : 1 ч. 48 м.
Вид битрейта : Постоянный
Битрейт : 384 Кбит/сек
Каналы : 6 каналов
Расположение каналов : Front: L C R, Side: L R, LFE
Частота : 48,0 КГц
Битовая глубина : 16 бит
Метод сжатия : С потерями
Размер потока : 299 Мбайт (7%)
Заголовок : DUB [iTunes]
Язык : Russian
Default : Да
Forced : Нет
Аудио #2
Идентификатор : 3
Формат : AC-3
Формат/Информация : Audio Coding 3
Расширение режима : CM (complete main)
Параметр Endianness формата : Big
Идентификатор кодека : A_AC3
Продолжительность : 1 ч. 48 м.
Вид битрейта : Постоянный
Битрейт : 192 Кбит/сек
Каналы : 2 канала
Расположение каналов : Front: L R
Частота : 48,0 КГц
Битовая глубина : 16 бит
Метод сжатия : С потерями
Размер потока : 149 Мбайт (3%)
Заголовок : AVO [Gaevsky]
Язык : Russian
Default : Нет
Forced : Нет
Аудио #3
Идентификатор : 4
Формат : AC-3
Формат/Информация : Audio Coding 3
Расширение режима : CM (complete main)
Параметр Endianness формата : Big
Идентификатор кодека : A_AC3
Продолжительность : 1 ч. 48 м.
Вид битрейта : Постоянный
Битрейт : 384 Кбит/сек
Каналы : 2 канала
Расположение каналов : Front: L R
Частота : 48,0 КГц
Битовая глубина : 16 бит
Метод сжатия : С потерями
Размер потока : 299 Мбайт (7%)
Язык : Ukrainian
Default : Нет
Forced : Нет
Аудио #4
Идентификатор : 5
Формат : AAC
Формат/Информация : Advanced Audio Codec
Профиль формата : LC
Идентификатор кодека : A_AAC
Продолжительность : 1 ч. 48 м.
Каналы : 2 канала
Расположение каналов : Front: L R
Частота : 48,0 КГц
Метод сжатия : С потерями
Язык : English
Default : Нет
Forced : Нет
Текст #1
Идентификатор : 6
Формат : UTF-8
Идентификатор кодека : S_TEXT/UTF8
Идентификатор кодека/Информация : UTF-8 Plain Text
Заголовок : Forced [iTunes]
Язык : Russian
Default : Да
Forced : Нет
Текст #2
Идентификатор : 7
Формат : UTF-8
Идентификатор кодека : S_TEXT/UTF8
Идентификатор кодека/Информация : UTF-8 Plain Text
Заголовок : RUS [iTunes]
Язык : Russian
Default : Нет
Forced : Нет
Текст #3
Идентификатор : 8
Формат : UTF-8
Идентификатор кодека : S_TEXT/UTF8
Идентификатор кодека/Информация : UTF-8 Plain Text
Заголовок : Forced [iTunes]
Язык : Ukrainian
Default : Нет
Forced : Нет
Текст #4
Идентификатор : 9
Формат : UTF-8
Идентификатор кодека : S_TEXT/UTF8
Идентификатор кодека/Информация : UTF-8 Plain Text
Заголовок : UKR [iTunes]
Язык : Ukrainian
Default : Нет
Forced : Нет
Текст #5
Идентификатор : 10
Формат : UTF-8
Идентификатор кодека : S_TEXT/UTF8
Идентификатор кодека/Информация : UTF-8 Plain Text
Заголовок : ENG [iTunes]
Язык : English
Default : Нет
Forced : Нет
Меню
00:00:00.000 : en:1
00:03:02.724 : en:2
00:05:51.017 : en:3
00:09:28.818 : en:4
00:13:17.087 : en:5
00:16:46.713 : en:6
00:20:10.541 : en:7
00:22:04.404 : en:8
00:27:07.623 : en:9
00:31:56.953 : en:10
00:36:49.704 : en:11
00:41:04.166 : en:12
00:44:43.760 : en:13
00:46:54.599 : en:14
00:50:08.960 : en:15
00:53:16.022 : en:16
00:55:31.032 : en:17
00:59:05.746 : en:18
01:03:03.233 : en:19
01:07:04.432 : en:20
01:09:13.561 : en:21
01:12:27.713 : en:22
01:16:44.386 : en:23
01:20:41.706 : en:24
01:25:51.390 : en:25
01:31:01.783 : en:26
01:34:44.964 : en:27
01:39:50.728 : en:28
Скриншоты:
Яндекс.Метрика
Рейтинг@Mail.ru