Сестры / Sisters (Джейсон Мур / Jason Moore) [2015 г., комедия, BDRip, 720p] Dub + Original (Eng) + Sub (Rus, Eng)

 

Создавать темы 26-Апр-2016 02:11

-Сестры / Sisters
«Когда они вместе, город не спит»
-- Производство: США
Год выпуска: 2015 г.
Жанр: комедия
Продолжительность: 01:57:46Перевод: Профессиональный (полное дублирование) [Blu-ray CEE]
Оригинальный аудиопоток: английскийРежиссер: Джейсон Мур / Jason Moore-В ролях: Эми Полер, Тина Фей, Майя Рудольф, Айк Баринхолц, Джеймс Бролин, Дайэнн Уист, Джон Сина, Джон Легуизамо, Бобби Мойнахан, Грета Ли-Описание: Две сестры решают устроить одну последнюю вечеринку в их семейном доме, прежде чем родители продадут его.- - -Качество видео: BDRip
Источник: Sisters.2015.COMPLETE.BLURAY-LAZERS
Контейнер: MKV
Стандарт разрешения: 720p
Видео кодек: H.264/AVC
Аудио кодек: AC3, DTS
Видео: 1280x534 at 23.976 fps, ~5900 kbps avg
Аудио: Russian: 48 kHz, AC3, 3/2 (L,C,R,l,r) + LFE ch, ~448.00 kbps avg |Дубляж, Blu-ray CEE|
Аудио #2: English: 48 kHz, DTS, 3/2 (L,C,R,l,r) + LFE ch, ~1536.00 kbps avg
Аудио #3: English: 48 kHz, AC3, 2/0 (L,R) LFE ch, ~192.00 kbps avg |Commentary|Cубтитры: Russian (Forced, iTunes), Russian (iTunes), English (SDH, iTunes)

Знаете ли вы, что...

• Третья совместная работа Тины Фей и Эми Полер. Они уже снимались вместе в фильмах «Дрянные девчонки» (2004) и «Ой, мамочки» (2008).
• Паула Пелл написала роли двух сестёр специально для Тины Фей и Эми Полер.
• Первоначально фильм собирались назвать «Гнездо».
• Эми Полер произносит строчку из песни «Paging Mr. Herman». Речь в ней идёт о главном герое фильма «Большое приключение Пи-Ви» (1985) Тима Бёртона, которого сыграл Джеймс Бролин.
• Джон Сина играет наркодельца по имени Пазузу. Точно так же звали демона, который вселился в Риган МакНил, которую сыграла Линда Блэр, в классическом фильме ужасов Уильяма Фридкина «Изгоняющий дьявола» (1973).
• Джеймс Бролин и Дайэнн Уист вместе снимаются в роли родителей в телевизионном комедийном сериале «Жизнь в деталях» (2015).
• В спальне сестёр над кроватью одной из них (частично скрытый лампой) висит плакат с Робом Лоу. Этот актёр снимался вместе с Эми Полер в сериале «Парки и зоны отдыха» (2009-2015).

Media Info

Код:
Format                      : Matroska
Format version              : Version 2
File size                   : 6.80 GiB
Duration                    : 1h 57mn
Overall bit rate            : 8 265 Kbps
Movie name                  : Sisters (2015) - Release for HDCLUB
Encoded date                : UTC 2016-04-24 11:53:31
Writing application         : mkvmerge v3.4.0 ('Rapunzel') built on May 15 2010 09:38:20
Writing library             : libebml v0.8.0 + libmatroska v0.9.0Video
ID                          : 1
Format                      : AVC
Format/Info                 : Advanced Video Codec
Format profile              : [email protected]/*  */
Format settings, CABAC      : Yes
Format settings, ReFrames   : 12 frames
Codec ID                    : V_MPEG4/ISO/AVC
Duration                    : 1h 57mn
Bit rate                    : 5 952 Kbps
Width                       : 1 280 pixels
Height                      : 534 pixels
Display aspect ratio        : 2.40:1
Frame rate mode             : Constant
Frame rate                  : 23.976 fps
Color space                 : YUV
Chroma subsampling          : 4:2:0
Bit depth                   : 8 bits
Scan type                   : Progressive
Bits/(Pixel*Frame)          : 0.363
Stream size                 : 4.90 GiB (72%)
Title                       : Sisters (2015) - Release for HDCLUB
Writing library             : x264 core 142 r2453kMod ea0ca51
Encoding settings           : opencl=1 / cabac=1 / ref=12 / deblock=1:-3:-3 / analyse=0x3:0x133 / me=umh / subme=11 / psy=1 / fade_compensate=0.00 / psy_rd=1.05:0.00 / mixed_ref=1 / me_range=24 / chroma_me=1 / trellis=2 / 8x8dct=1 / cqm=0 / deadzone=21,11 / fast_pskip=0 / chroma_qp_offset=-2 / threads=36 / lookahead_threads=4 / sliced_threads=0 / nr=0 / decimate=0 / interlaced=0 / bluray_compat=0 / constrained_intra=0 / fgo=0 / bframes=9 / b_pyramid=2 / b_adapt=2 / b_bias=0 / direct=3 / weightb=1 / open_gop=0 / weightp=2 / keyint=250 / keyint_min=23 / scenecut=40 / intra_refresh=0 / rc=crf / mbtree=0 / crf=16.0000 / qcomp=0.60 / qpmin=0 / qpmax=69 / qpstep=4 / ip_ratio=1.30 / pb_ratio=1.20 / aq=3:0.75
Language                    : English
Default                     : Yes
Forced                      : NoAudio #1
ID                          : 2
Format                      : AC-3
Format/Info                 : Audio Coding 3
Mode extension              : CM (complete main)
Format settings, Endianness : Big
Codec ID                    : A_AC3
Duration                    : 1h 57mn
Bit rate mode               : Constant
Bit rate                    : 448 Kbps
Channel(s)                  : 6 channels
Channel positions           : Front: L C R, Side: L R, LFE
Sampling rate               : 48.0 KHz
Bit depth                   : 16 bits
Compression mode            : Lossy
Stream size                 : 377 MiB (5%)
Title                       : AC3 5.1 @ 448 kbps - DUB, Blu-ray CEE
Language                    : Russian
Default                     : Yes
Forced                      : NoAudio #2
ID                          : 3
Format                      : DTS
Format/Info                 : Digital Theater Systems
Mode                        : 16
Format settings, Endianness : Big
Codec ID                    : A_DTS
Duration                    : 1h 57mn
Bit rate mode               : Constant
Bit rate                    : 1 509 Kbps
Channel(s)                  : 6 channels
Channel positions           : Front: L C R, Side: L R, LFE
Sampling rate               : 48.0 KHz
Bit depth                   : 24 bits
Compression mode            : Lossy
Stream size                 : 1.24 GiB (18%)
Title                       : DTS 5.1 @ 1536 kbps
Language                    : English
Default                     : No
Forced                      : NoAudio #3
ID                          : 4
Format                      : AC-3
Format/Info                 : Audio Coding 3
Format profile              : Dolby Digital
Mode extension              : CM (complete main)
Format settings, Endianness : Big
Codec ID                    : A_AC3
Duration                    : 1h 57mn
Bit rate mode               : Constant
Bit rate                    : 192 Kbps
Channel(s)                  : 2 channels
Channel positions           : Front: L R
Sampling rate               : 48.0 KHz
Bit depth                   : 16 bits
Compression mode            : Lossy
Stream size                 : 162 MiB (2%)
Title                       : AC3 2.0 @ 192 kbps - Feature Commentary With Director Jason Moore, Star/Producer Tina Fey, Star/Executive Producer Amy Poehler and Writer Paula Pell
Language                    : English
Default                     : No
Forced                      : NoText #1
ID                          : 5
Format                      : UTF-8
Codec ID                    : S_TEXT/UTF8
Codec ID/Info               : UTF-8 Plain Text
Title                       : Forced, iTunes
Language                    : Russian
Default                     : Yes
Forced                      : NoText #2
ID                          : 6
Format                      : UTF-8
Codec ID                    : S_TEXT/UTF8
Codec ID/Info               : UTF-8 Plain Text
Title                       : iTunes
Language                    : Russian
Default                     : No
Forced                      : NoText #3
ID                          : 7
Format                      : UTF-8
Codec ID                    : S_TEXT/UTF8
Codec ID/Info               : UTF-8 Plain Text
Title                       : SDH, iTunes
Language                    : English
Default                     : No
Forced                      : NoMenu
00:00:00.000                : en:00:00:00.000
00:07:48.175                : en:00:07:48.175
00:13:55.543                : en:00:13:55.543
00:17:50.861                : en:00:17:50.861
00:23:15.018                : en:00:23:15.018
00:28:56.526                : en:00:28:56.526
00:33:05.107                : en:00:33:05.107
00:38:01.445                : en:00:38:01.445
00:43:41.869                : en:00:43:41.869
00:47:39.063                : en:00:47:39.063
00:53:23.490                : en:00:53:23.490
00:59:15.927                : en:00:59:15.927
01:06:01.748                : en:01:06:01.748
01:13:13.971                : en:01:13:13.971
01:19:03.029                : en:01:19:03.029
01:26:25.304                : en:01:26:25.304
01:32:26.332                : en:01:32:26.332
01:40:15.466                : en:01:40:15.466
01:46:12.239                : en:01:46:12.239
01:50:56.774                : en:01:50:56.774

Скриншот c названием фильма

Скриншоты

Яндекс.Метрика
Рейтинг@Mail.ru