[ Сегодня на трекере фрилич! Идет свободное скачивание без начисления Download ]

Волшебники / The Magicians / Сезон: 1 / Серии: 1-13 (13) (Джеймс Л. Конуэй / James L. Conway, ...) [2016 г., ужасы, фэнтези, драма, WEB-DL, 720p] MVO (LostFilm, Jaskier) + Original (Eng) + Sub (Eng)

 

Создавать темы 26-Апр-2016 02:09

-Волшебники / The Magicians
(1 сезон)
-- Производство: США
Жанр: ужасы, фэнтези, драма
Год выпуска: 2016 г.
Продолжительность: 13x ~00:43:00Перевод: Профессиональный (многоголосый, закадровый) [LostFilm]
Перевод 2: Профессиональный (многоголосый, закадровый) [Jaskier]
Оригинальный аудиопоток: английскийРежиссер: Джеймс Л. Конуэй / James L. Conway, Скотт Смит / Scott Smith, Майк Кэхилл / Mike Cahill, ...-В ролях: Джейсон Ральф, Арджун Гупта, Стелла Маив, Оливия Тейлор Дадли, Хейл Эйплмен, Саммер Бишил, Джейд Тейлор, Чарльз Межер, Эдвин Перез, Темби Лок, ...-Описание: Молодые люди, слегка за двадцать, изучают в современном Нью-Йорке магию и обнаруживают, что волшебный мир, о котором они читали в детстве, не только реален, но еще и очень опасен.- - -Качество видео: WEB-DL
Контейнер: MKV
Стандарт разрешения: 720p
Видео кодек: H.264/AVC
Аудио кодек: AC3
Видео: 1280x720 at 23.976 fps, ~4000 kbps avg
Аудио: Russian: 48 kHz, AC3, 3/2 (L,C,R,l,r) + LFE ch, ~384.00 kbps avg |Многоголосый закадровый, LostFilm|
Аудио #2: Russian: 48 kHz, AC3, 3/2 (L,C,R,l,r) + LFE ch, ~384.00 kbps avg |Многоголосый закадровый, Jaskier|
Аудио #3: English: 48 kHz, AC3, 3/2 (L,C,R,l,r) + LFE ch, ~384.00 kbps avgCубтитры: английские

Список серий

01. Запрещённое волшебство / Unauthorized Magic
02. Источник магии / The Source of Magic
03. Последствия продвинутой магии / Consequences of Advanced Spellcasting
04. Мир в стенах / The World in the Walls
05. Исцеление в большом и малом / Mendings, Major and Minor
06. Непрактичное применение / Impractical Applications
07. Обстоятельства по Маяковскому / The Mayakovsky Circumstances
08. Пронзённое сердце / The Strangled Heart
09. Кабинет писателя / The Writing Room
10. Возвращение домой / Homecoming
11. Исцеляющая боевая магия / Remedial Battle Magic
12. Тридцать девять могил / Thirty-Nine Graves
13. Вы принесли мне пироженки? / Have You Brought Me Little Cakes

Media Info

Код:
Format                      : Matroska
Format version              : Version 4 / Version 2
File size                   : 1.88 GiB
Duration                    : 52mn 1s
Overall bit rate            : 5 187 Kbps
Movie name                  : The Magicians (2015) - Release for HDCLUB
Encoded date                : UTC 2016-02-07 16:24:53
Writing application         : mkvmerge v6.2.0 ('Promised Land') built on Apr 28 2013 12:22:01
Writing library             : libebml v1.3.0 + libmatroska v1.4.0Video
ID                          : 1
Format                      : AVC
Format/Info                 : Advanced Video Codec
Format profile              : [email protected]/*  */
Format settings, CABAC      : No
Format settings, ReFrames   : 2 frames
Codec ID                    : V_MPEG4/ISO/AVC
Duration                    : 52mn 1s
Bit rate                    : 3 932 Kbps
Width                       : 1 280 pixels
Height                      : 720 pixels
Display aspect ratio        : 16:9
Frame rate mode             : Constant
Frame rate                  : 23.976 fps
Color space                 : YUV
Chroma subsampling          : 4:2:0
Bit depth                   : 8 bits
Scan type                   : Progressive
Bits/(Pixel*Frame)          : 0.178
Stream size                 : 1.43 GiB (76%)
Language                    : English
Default                     : Yes
Forced                      : No
Color primaries             : BT.709
Transfer characteristics    : BT.709
Matrix coefficients         : BT.709
Color range                 : LimitedAudio #1
ID                          : 2
Format                      : AC-3
Format/Info                 : Audio Coding 3
Mode extension              : CM (complete main)
Format settings, Endianness : Big
Codec ID                    : A_AC3
Duration                    : 52mn 1s
Bit rate mode               : Constant
Bit rate                    : 384 Kbps
Channel(s)                  : 6 channels
Channel positions           : Front: L C R, Side: L R, LFE
Sampling rate               : 48.0 KHz
Bit depth                   : 16 bits
Compression mode            : Lossy
Stream size                 : 143 MiB (7%)
Title                       : LostFilm
Language                    : Russian
Default                     : Yes
Forced                      : NoAudio #2
ID                          : 3
Format                      : AC-3
Format/Info                 : Audio Coding 3
Mode extension              : CM (complete main)
Format settings, Endianness : Big
Codec ID                    : A_AC3
Duration                    : 52mn 1s
Bit rate mode               : Constant
Bit rate                    : 384 Kbps
Channel(s)                  : 6 channels
Channel positions           : Front: L C R, Side: L R, LFE
Sampling rate               : 48.0 KHz
Bit depth                   : 16 bits
Compression mode            : Lossy
Stream size                 : 143 MiB (7%)
Title                       : Jaskier
Language                    : Russian
Default                     : No
Forced                      : NoAudio #3
ID                          : 4
Format                      : AC-3
Format/Info                 : Audio Coding 3
Mode extension              : CM (complete main)
Format settings, Endianness : Big
Codec ID                    : A_AC3
Duration                    : 52mn 1s
Bit rate mode               : Constant
Bit rate                    : 384 Kbps
Channel(s)                  : 6 channels
Channel positions           : Front: L C R, Side: L R, LFE
Sampling rate               : 48.0 KHz
Bit depth                   : 16 bits
Compression mode            : Lossy
Stream size                 : 143 MiB (7%)
Language                    : English
Default                     : No
Forced                      : NoText
ID                          : 5
Format                      : UTF-8
Codec ID                    : S_TEXT/UTF8
Codec ID/Info               : UTF-8 Plain Text
Language                    : English
Default                     : No
Forced                      : No

Скриншот c названием фильма

Скриншоты

Яндекс.Метрика
Рейтинг@Mail.ru