Любовь вне конкурса / Серии: 1-4 из 4 (Илья Хотиненко) [2015, Россия, Комедия, мелодрама, WEBRip]

 

Создавать темы 23-Апр-2016 22:58

Любовь вне конкурса
Производитель : Россия
Жанр: Комедия, мелодрама
Год выпуска: 2015
Продолжительность: 45 мин.
Cубтитры: нет
Режиссер: Илья Хотиненко
В ролях: Илья Шакунов, Ксения Князева, Елена Муравьева, Денис Синявский, Алина Бабак, Валентин Смирнитский
Описание: Нина привыкла не доверять мужчинам и посвятила жизнь карьере. Будучи талантливым архитектором, она работает день и ночь ради победы в профессиональном конкурсе. Руководитель конкурса Виктор — бизнесмен и убеждённый холостяк, не доверяющий женщинам. У этого недоверия есть свои корни: много лет назад жена оставила героя с маленькой дочкой Кирой, которая теперь стала трудным подростком. Ввиду недоразумения Нина становится няней Киры. Однако именно Нина не без помощи отзывчивого дворецкого находит язык с одинокой девочкой, помогает ей раскрыться и, кажется, завладевает сердцем хозяина дома…
Доп. информация: Релиз группа -Сэмпл
Качество: WEBRip
Формат: AVI
Видео кодек: XviD
Аудио кодек: AC3
Видео: 720x400 (1.80:1), 25 fps, XviD build 73 ~1548 kbps avg, 0.22 bit/pixel
Аудио: 48 kHz, AC3 Dolby Digital, 2/0 (L,R) ch, ~192.00 kbps avg
MI

Общее

Полное имя : F:\Video\Liubov.vne.konkursa.2015.WEB-DLRip.Files-x\02.Liubov.vne.konkursa.2015.WEB-DLRip.Files-x.avi
Формат : AVI
Формат/Информация : Audio Video Interleave
Размер файла : 550 Мбайт
Продолжительность : 44 м.
Общий поток : 1741 Кбит/сек
Программа кодирования : VirtualDubMod 1.5.10.3 | www.virtualdub-fr.org || (build 2550/release)
Библиотека кодирования : VirtualDubMod build 2550/release
Видео
Идентификатор : 0
Формат : MPEG-4 Visual
Профиль формата : Advanced [email protected]
Параметр BVOP формата : 1
Параметр QPel формата : Нет
Параметр GMC формата : Без точки перехода
Параметр матрицы формата : Выборочная
Идентификатор кодека : XVID
Идентификатор кодека/Подсказка : XviD
Продолжительность : 44 м.
Битрейт : 1539 Кбит/сек
Ширина : 720 пикселей
Высота : 400 пикселей
Соотношение сторон : 16:9
Частота кадров : 25,000 кадров/сек
Цветовое пространство : YUV
Субдискретизация насыщенности : 4:2:0
Битовая глубина : 8 бит
Тип развёртки : Прогрессивная
Метод сжатия : С потерями
Бит/(Пиксели*Кадры) : 0.214
Размер потока : 487 Мбайт (88%)
Библиотека кодирования : XviD 73
Аудио
Идентификатор : 1
Формат : AC-3
Формат/Информация : Audio Coding 3
Расширение режима : CM (complete main)
Параметр Endianness формата : Big
Идентификатор кодека : 2000
Продолжительность : 44 м.
Вид битрейта : Постоянный
Битрейт : 192 Кбит/сек
Каналы : 2 канала
Расположение каналов : Front: L R
Частота : 48,0 КГц
Частота кадров : 31,250 кадров/сек (1536 spf)
Метод сжатия : С потерями
Размер потока : 60,7 Мбайт (11%)
Выравнивание : Разделение по промежуткам
Продолжительность промежутка : 40 мс. (1,00 видеокадр)
Время предзагрузки промежутка : 500 мс.

Скриншоты

Яндекс.Метрика
Рейтинг@Mail.ru