[ Сегодня на трекере фрилич! Идет свободное скачивание без начисления Download ]

Выживший / The Revenant (Алехандро Гонсалес Иньярриту) [2015/16, триллер, драма, приключения, BDRip] [Лицензия] DUB

 

Создавать темы 19-Апр-2016 09:50

--Выживший / The Revenant--
  • Год выпуска: 2015/16
  • Страна: США / Anonymous Content, Appian Way, New Regency Pictures...
  • Жанр: триллер, драма, приключения
  • Продолжительность: 02:36:21
  • Перевод: Профессиональный (полное дублирование) [Лицензия]-
  • Режиссёр: Алехандро Гонсалес Иньярриту-
  • В ролях: Леонардо ДиКаприо, Том Харди, Донал Глисон, Уилл Поултер, Форрест Гудлак, Пол Андерсон, Кристоффер Йонер, Джошуа Бёрдж, Дуан Ховард...-
  • Охотник Хью Гласс серьезно ранен на неизведанных просторах американского Дикого Запада. Товарищ Хью по отряду покорителей новых земель Джон Фицжеральд предательски оставляет его умирать в одиночестве. Теперь у Гласса осталось только одно оружие — его сила воли. Он готов бросить вызов первобытной природе, суровой зиме и враждебным племенам индейцев, только чтобы выжить и отомстить Фицжеральду.-
  • Премьера в России: 7 января 2016, «Двадцатый Век Фокс СНГ»--
  • --
  • Качество видео: BDRip
  • Формат видео: AVI
  • Видео кодек: XviD
  • Аудио кодек: AC3
  • Видео: 720x304 (2.35:1), 23.976 fps, XviD MPEG-4, ~1136 kbps avg, 0.216 bit/pixel
  • Аудио: 48.0 kHz, AC3 Dolby Digital, 2/0 (L,R) ch, ~192.00 kbps avg
  • Субтитры: русские (вшитые, на индейскую речь и текст)
--

Media Info

General
Complete name : W:\O.S.A.\Торренты\Завершенные торренты\Vyzhivshij.2015.D.BDRip.1.46Gb_by_Twi7ter.avi
Format : AVI
Format/Info : Audio Video Interleave
File size : 1.46 GiB
Duration : 2h 36mn
Overall bit rate : 1 337 Kbps
Movie name : Vyzhivshij.2015.D.BDRip.1.46Gb_by_Twi7ter
Director : Twi7ter
Genre : Thriller/Drama/Adventur/Western
Writing application : VirtualDubMod 1.5.10.3 (build 2550/release)
Writing library : VirtualDubMod build 2550/release
Original source form/Name : Movie
Video
ID : 0
Format : MPEG-4 Visual
Format profile : Advanced [email protected]
Format settings, BVOP : 2
Format settings, QPel : No
Format settings, GMC : No warppoints
Format settings, Matrix : Custom
Codec ID : XVID
Codec ID/Hint : XviD
Duration : 2h 36mn
Bit rate : 1 136 Kbps
Width : 720 pixels
Height : 304 pixels
Display aspect ratio : 2.35:1
Frame rate : 23.976 fps
Color space : YUV
Chroma subsampling : 4:2:0
Bit depth : 8 bits
Scan type : Progressive
Compression mode : Lossy
Bits/(Pixel*Frame) : 0.216
Stream size : 1.24 GiB (85%)
Writing library : XviD 73
Audio
ID : 1
Format : AC-3
Format/Info : Audio Coding 3
Mode extension : CM (complete main)
Codec ID : 2000
Duration : 2h 36mn
Bit rate mode : Constant
Bit rate : 192 Kbps
Channel(s) : 2 channels
Channel positions : Front: L R
Sampling rate : 48.0 KHz
Bit depth : 16 bits
Compression mode : Lossy
Stream size : 215 MiB (14%)
Alignment : Split accross interleaves
Interleave, duration : 42 ms (1.00 video frame)
Interleave, preload duration : 500 ms
---- --
Яндекс.Метрика
Рейтинг@Mail.ru