[ Сегодня на трекере фрилич! Идет свободное скачивание без начисления Download ]

Сонная лощина / Sleepy Hollow (Тим Бертон)[1999,Ужасы, криминал, мистика, фэнтези, приключения, триллер, BDRip] | D, P, A

 

Создавать темы 29-Дек-2013 04:28

Название: Сонная лощина
Оригинальное название: Sleepy Hollow
Год выпуска: 1999
Жанр: Ужасы, криминал, мистика, фэнтези, приключения, триллер
Режиссер: Тим Бертон
В ролях: Джонни Депп, Кристина Риччи, Кристофер Уокен, Миранда Ричардсон, Майкл Гэмбон, Каспер Ван Дин, Джеффри Джонс, Кристофер Ли, Ричард Гриффитс, Иэн МакДайармид, Майкл Гоф, Лиза Мари
Описание: Голова на плечах необходима при любых обстоятельствах, особенно если в ней много прогрессивных научных мыслей, помогающих ответственному и целеустремленному молодому констеблю, даже несмотря на далёкий 1799 год, успешно выполнять свои нелегкие служебные обязанности. Но однажды обстоятельства вынуждают его оказаться в окутанном ночными туманами и страшными событиями городке, где как раз-таки жертвы загадочных убийств и не могут похвастаться наличием на плечах голов! Не понятно? Да! Пугающе? До обморочной дрожи! Но если твердо верить в то, что не всё является таким, каким кажется на первых взгляд, то возможно именно эта вера и есть то единственное, что можно противопоставить нарастающему жуткому конскому топоту, что звучит в ночи по-настоящему адской музыкой!...
Выпущено: Германия, США, American Zoetrope, Karol Film Productions, Mandalay Pictures, Paramount Pictures
Продолжительность: 01:45:20
Перевод: Дублированный, профессиональный многоголосый, авторский
Качество: BDRip
Видео: XviD, 1494 Кбит/с, 720x384
Аудио#1: Русский (AC3, 2 ch, 192 Кбит/с) - Дублированный (с VHS)
Аудио#2: Русский (AC3, 2 ch, 192 Кбит/с) - Профессиональный двухголосый (Премьер)
Аудио#3: Русский (AC3, 6 ch, 384 Кбит/с) - Профессиональный многоголосый (СуперБит) - отдельно
Аудио#4: Русский (AC3, 6 ch, 384 Кбит/с) - Профессиональный многоголосый (R5) - отдельно
Аудио#5: Русский (AC3, 6 ch, 384 Кбит/с) - Профессиональный многоголосый (НТВ+) - отдельно
Аудио#6: Русский (AC3, 6 ch, 384 Кбит/с) - Авторский (Гаврилов) - отдельно

Инфо

Полное имя : E:Sonnaya.loschina.1999.tahiy1. Sonnaya.loschina.1999.tahiy.avi
Формат : AVI
Формат/Информация : Audio Video Interleave
Размер файла : 1,39 Гбайт
Продолжительность : 1 ч. 45 м.
Общий поток : 1892 Кбит/сек
Название фильма : Sonnaya.loschina.1999.tahiy
Программа кодирования : VirtualDubMod 1.5.10.3 | www.virtualdub-fr.org || (build 2550/release)
Видео
Идентификатор : 0
Формат : MPEG-4 Visual
Профиль формата : Advanced [email protected]
Параметр BVOP формата : 1
Параметр QPel формата : Нет
Параметр GMC формата : Без точки перехода
Параметр матрицы формата : Default (MPEG)
Идентификатор кодека : XVID
Идентификатор кодека/Подсказка : XviD
Продолжительность : 1 ч. 45 м.
Битрейт : 1494 Кбит/сек
Ширина : 720 пикселей
Высота : 384 пикселя
Соотношение сторон : 1,85:1
Частота кадров : 23,976 кадра/сек
Цветовое пространство : YUV
Субдискретизация насыщенности : 4:2:0
Битовая глубина : 8 бит
Тип развёртки : Прогрессивная
Метод сжатия : С потерями
Бит/(Пиксели*Кадры) : 0.225
Размер потока : 1,10 Гбайт (79%)
Библиотека кодирования : XviD 1.2.1 (UTC 2008-12-04)
Аудио #1
Идентификатор : 1
Формат : AC-3
Формат/Информация : Audio Coding 3
Расширение режима : CM (complete main)
Параметр Endianness формата : Big
Идентификатор кодека : 2000
Продолжительность : 1 ч. 45 м.
Вид битрейта : Постоянный
Битрейт : 192 Кбит/сек
Каналы : 2 канала
Расположение каналов : Front: L R
Частота : 48,0 КГц
Битовая глубина : 16 бит
Метод сжатия : С потерями
Размер потока : 145 Мбайт (10%)
Выравнивание : Разделение по промежуткам
Продолжительность промежутка : 42 мс. (1,00 видеокадр)
Время предзагрузки промежутка : 500 мс.
Аудио #2
Идентификатор : 2
Формат : AC-3
Формат/Информация : Audio Coding 3
Расширение режима : CM (complete main)
Параметр Endianness формата : Big
Идентификатор кодека : 2000
Продолжительность : 1 ч. 45 м.
Вид битрейта : Постоянный
Битрейт : 192 Кбит/сек
Каналы : 2 канала
Расположение каналов : Front: L R
Частота : 48,0 КГц
Битовая глубина : 16 бит
Метод сжатия : С потерями
Размер потока : 144 Мбайт (10%)
Выравнивание : Разделение по промежуткам
Продолжительность промежутка : 42 мс. (1,00 видеокадр)
Время предзагрузки промежутка : 500 мс.
====================================================================================
Полное имя : E:Sonnaya.loschina.1999.tahiy2. Sonnaya.loschina.1999.tahiy.СуперБит.ac3
Формат : AC-3
Формат/Информация : Audio Coding 3
Размер файла : 289 Мбайт
Продолжительность : 1 ч. 45 м.
Режим общего битрейта : Постоянный
Общий поток : 384 Кбит/сек
Аудио
Формат : AC-3
Формат/Информация : Audio Coding 3
Расширение режима : CM (complete main)
Параметр Endianness формата : Big
Продолжительность : 1 ч. 45 м.
Вид битрейта : Постоянный
Битрейт : 384 Кбит/сек
Каналы : 6 каналов
Расположение каналов : Front: L C R, Side: L R, LFE
Частота : 48,0 КГц
Битовая глубина : 16 бит
Метод сжатия : С потерями
Размер потока : 289 Мбайт (100%)
====================================================================================
Полное имя : E:Sonnaya.loschina.1999.tahiy3. Sonnaya.loschina.1999.tahiy.R5.ac3
Формат : AC-3
Формат/Информация : Audio Coding 3
Размер файла : 289 Мбайт
Продолжительность : 1 ч. 45 м.
Режим общего битрейта : Постоянный
Общий поток : 384 Кбит/сек
Аудио
Формат : AC-3
Формат/Информация : Audio Coding 3
Расширение режима : CM (complete main)
Параметр Endianness формата : Big
Продолжительность : 1 ч. 45 м.
Вид битрейта : Постоянный
Битрейт : 384 Кбит/сек
Каналы : 6 каналов
Расположение каналов : Front: L C R, Side: L R, LFE
Частота : 48,0 КГц
Битовая глубина : 16 бит
Метод сжатия : С потерями
Размер потока : 289 Мбайт (100%)
====================================================================================
Полное имя : E:Sonnaya.loschina.1999.tahiy4. Sonnaya.loschina.1999.tahiy.НТВ+.ac3
Формат : AC-3
Формат/Информация : Audio Coding 3
Размер файла : 289 Мбайт
Продолжительность : 1 ч. 45 м.
Режим общего битрейта : Постоянный
Общий поток : 384 Кбит/сек
Аудио
Формат : AC-3
Формат/Информация : Audio Coding 3
Расширение режима : CM (complete main)
Параметр Endianness формата : Big
Продолжительность : 1 ч. 45 м.
Вид битрейта : Постоянный
Битрейт : 384 Кбит/сек
Каналы : 6 каналов
Расположение каналов : Front: L C R, Side: L R, LFE
Частота : 48,0 КГц
Битовая глубина : 16 бит
Метод сжатия : С потерями
Размер потока : 289 Мбайт (100%)
====================================================================================
Полное имя : E:Sonnaya.loschina.1999.tahiy5. Sonnaya.loschina.1999.tahiy.Гаврилов.ac3
Формат : AC-3
Формат/Информация : Audio Coding 3
Размер файла : 289 Мбайт
Продолжительность : 1 ч. 45 м.
Режим общего битрейта : Постоянный
Общий поток : 384 Кбит/сек
Аудио
Формат : AC-3
Формат/Информация : Audio Coding 3
Расширение режима : CM (complete main)
Параметр Endianness формата : Big
Продолжительность : 1 ч. 45 м.
Вид битрейта : Постоянный
Битрейт : 384 Кбит/сек
Каналы : 6 каналов
Расположение каналов : Front: L C R, Side: L R, LFE
Частота : 48,0 КГц
Битовая глубина : 16 бит
Метод сжатия : С потерями
Размер потока : 289 Мбайт (100%)

Скриншоты

Яндекс.Метрика
Рейтинг@Mail.ru