Невский (Серии 1—30 из 30) (Андрей Коршунов, Алексей Павлов, Игорь Драка) [2015/16, боевик, криминал, HDTVRip]

 

Создавать темы 12-Апр-2016 13:33

--Невский--
  • Год выпуска: 2015/16
  • Страна: Россия / «Триикс Медиа»
  • Жанр: боевик, криминал
  • Продолжительность: 30 х ~00:43:00
  • Перевод: Не требуется-
  • Режиссёр: Андрей Коршунов, Алексей Павлов, Игорь Драка-
  • В ролях: Антон Васильев, Андрей Гульнев, Сергей Кошонин, Дмитрий Паламарчук, Мария Капустинская, Наталья Дворецкая, Александр Кудренко, Александр Саюталин, Николай Смирнов, Юрий Архангельский...-
  • Капитан полиции Павел Семенов служит в одном из спальных районов Санкт-Петербурга. Павел привык разнимать пьяные драки и в одиночку входить в притоны наркоманов, чтобы провести очередной арест. Он знает, что если будет думать и рассуждать, его просто убьют. И привык сначала действовать, а потом разбираться, потому что очень хочет остаться в живых, ведь его дома ждут жена Юля и сын Саша.
    … Рискуя жизнью, он спасает дочь бизнесмена. В благодарность Латышев, отец девочки, содействует переводу Павла на Невский проспект, в самый центр большого города, где служить престижно и выгодно… Но отношения в новом коллективе у Павла не складываются. Большинство коллег заняты вопросами личного обогащения, борьба с преступностью их интересует в последнюю очередь.
    И вскоре Павел начинает подозревать, что его перевод в Центральный район был осуществлен Латышевым с каким-то далеко идущими планами. А когда Павел выходит на след таинственного киллера по кличке Рафаэль, все окончательно запутывается.
    Но в трудной ситуации Павел всегда может положиться на своих друзей из спального района – бывшего напарника Кирилла Назарова и криминального авторитета Алексея Фомина...
    -
  • Премьера в России: 11 апреля 2016 (НТВ)--
  • --
  • Качество видео: HDTVRip
  • Формат видео: AVI
  • Видео кодек: XviD
  • Аудио кодек: AC3
  • Видео: 720x400 (1.80:1), 25.000 fps, XviD MPEG-4, ~1600 kbps avg, 0.200 bit/pixel
  • Аудио: 48.0 kHz, AC3 Dolby Digital, 2/0 (L,R) ch, ~192.00 kbps avg
  • Субтитры: нет
--

Внимание ! Раздача ведётся путём добавления новых серий !!!

Внимание! Раздача ведётся путём добавления новых серий; при каждом добавлении создаётся новый торрент. Чтобы начать докачку новой серии, пользователям необходимо сделать следующее:
(1) остановить скачивание,раздачу,
(2) удалить старый торрент у себя из клиента (старые серии удалять не надо),
(3) скачать новый торрент и запустить его у себя в клиенте вместо старого, при этом указать клиенту путь в старую папку куда и должно происходить скачивание новых серий.
Ваш клиент при этом должен произвести хеширование (проверку) старой папки (если не производит сами - помогите ему сделать это), и будет докачивать только те серии которых у вас ещё нет. Старые серии при этом не удаляются, а продолжают раздаваться!
Eсли вы уже удалили старые серии, то предотвратить повторную закачку старых серий можно, отжав галочку в соответствующих местах при запуске нового торрента. По возможности, желательно не удалять старые серии как можно дольше чтобы релизёр не столько продолжал раздавать старые серии, а смог сконцентрироваться на новых.

Media Info

General
Complete name : W:\O.S.A.\Торренты\Завершенные торренты\Nevskij.2015.HDTVRip.Files-x\01.Nevskij.2015.HDTVRip.Files-x.avi
Format : AVI
Format/Info : Audio Video Interleave
File size : 550 MiB
Duration : 43mn 6s
Overall bit rate : 1 783 Kbps
Writing application : VirtualDubModRus 1.5.10.2 (build 2542/release)
Writing library : VirtualDubMod build 2542/release
Video
ID : 0
Format : MPEG-4 Visual
Format profile : Advanced [email protected]
Format settings, BVOP : 1
Format settings, QPel : No
Format settings, GMC : No warppoints
Format settings, Matrix : Custom
Codec ID : XVID
Codec ID/Hint : XviD
Duration : 43mn 6s
Bit rate : 1 581 Kbps
Width : 720 pixels
Height : 400 pixels
Display aspect ratio : 16:9
Frame rate : 25.000 fps
Color space : YUV
Chroma subsampling : 4:2:0
Bit depth : 8 bits
Scan type : Progressive
Compression mode : Lossy
Bits/(Pixel*Frame) : 0.220
Stream size : 488 MiB (89%)
Writing library : XviD 73
Audio
ID : 1
Format : AC-3
Format/Info : Audio Coding 3
Mode extension : CM (complete main)
Codec ID : 2000
Duration : 43mn 6s
Bit rate mode : Constant
Bit rate : 192 Kbps
Channel(s) : 2 channels
Channel positions : Front: L R
Sampling rate : 48.0 KHz
Bit depth : 16 bits
Compression mode : Lossy
Stream size : 59.2 MiB (11%)
Alignment : Split accross interleaves
Interleave, duration : 40 ms (1.00 video frame)
Interleave, preload duration : 500 ms
---- --


Последний раз редактировалось: O.S.A. (2016-04-22 23:19), всего редактировалось 1 раз

Создавать темы 21-Апр-2016 23:27 (спустя 9 дней)

23.04.2016 добавлены серии 28—30 !!!
Яндекс.Метрика
Рейтинг@Mail.ru