Доверие / The Trust (2016) BDRip

 

Создавать темы 11-Апр-2016 16:59

- Доверие / The Trust (2016) BDRip - Производство: Великобритания, The Electric Shadow Company, Hassell Free Production, Highland Film Group, Ingenious Media, Prettybird, Saban Films, Saeculum Productions
Жанр: Триллер, Криминал
Режиссер: Алекс Брюэр, Бенжамин Брюэр
Продюсер: Молли Хэсселл, Брэкстон Поуп, Эми Р. Мерфи
Актеры: Николас Кейдж, Элайджа Вуд, Джерри Льюис, Стивен Уильямс, Скай Феррейра, Кевин Уайзман, Лиза Гарднер, Кристи Беран, Джеффри Ховард, Томми Вегас
Описание:
Парочка коррумпированных полицейских в отделе улик обнаруживает сейф с нарко-деньгами. Решив похитить тайник, они не подозревают, что вступают в игру за собственные жизни.
Возраст: 16+ (зрителям, достигшим 16 лет)
Рейтинг MPAA: R (лицам до 17 лет обязательно присутствие взрослого)
Дата мировой премьеры: 13 марта 2016
Релиз от: Twi7ter
Продолжительность: 01:31:43
Качество видео: BDRip
Перевод: Многоголосый закадровый, любительский (Parovoz Production)
Субтитры: Русские (Forced) на надписи, отдельным файлом
Видео: 704x384 (1.83:1), 23.976 fps, XviD build 73 ~1822 kbps avg, 0.28 bit/pixel
Аудио: 48 kHz, AC3 Dolby Digital, 3/2 (L,C,R,l,r) + LFE ch, ~448 kbps

Mediainfo:

General
Complete name                  : D:\Downloading\Doverie.2016.L.BDRip.1.46Gb_by_Twi7ter\Doverie.2016.L.BDRip.1.46Gb_by_Twi7ter.avi
Format                         : AVI
Format/Info                    : Audio Video Interleave
File size                      : 1.46 GiB
Duration                       : 1h 31mn
Overall bit rate               : 2 279 Kbps
Movie name                     : Doverie.2016.L.BDRip.1.46Gb_by_Twi7ter
Director                       : Twi7ter
Genre                          : Thriller/Crime
Original source form/Name      : Movie
Video
ID                             : 0
Format                         : MPEG-4 Visual
Format profile                 : Advanced [email protected]
Format settings, BVOP          : 2
Format settings, QPel          : No
Format settings, GMC           : No warppoints
Format settings, Matrix        : Custom
Codec ID                       : XVID
Codec ID/Hint                  : XviD
Duration                       : 1h 31mn
Bit rate                       : 1 822 Kbps
Width                          : 704 pixels
Height                         : 384 pixels
Display aspect ratio           : 1.85:1
Frame rate                     : 23.976 (24000/1001) fps
Color space                    : YUV
Chroma subsampling             : 4:2:0
Bit depth                      : 8 bits
Scan type                      : Progressive
Compression mode               : Lossy
Bits/(Pixel*Frame)             : 0.281
Stream size                    : 1.17 GiB (80%)
Writing library                : XviD 73
Audio
ID                             : 1
Format                         : AC-3
Format/Info                    : Audio Coding 3
Mode extension                 : CM (complete main)
Format settings, Endianness    : Big
Codec ID                       : 2000
Duration                       : 1h 31mn
Bit rate mode                  : Constant
Bit rate                       : 448 Kbps
Channel(s)                     : 6 channels
Channel positions              : Front: L C R, Side: L R, LFE
Sampling rate                  : 48.0 KHz
Frame rate                     : 31.250 fps (1536 spf)
Compression mode               : Lossy
Stream size                    : 294 MiB (20%)
Alignment                      : Aligned on interleaves
Interleave, duration           : 42 ms (1.00 video frame)
Interleave, preload duration   : 512 ms
Скриншоты:
-Время раздачи: 24/7 (до появления первых 30-50 скачавших)
Яндекс.Метрика
Рейтинг@Mail.ru