Доверие / The Trust (2016) HDRip | L

 

Создавать темы 09-Апр-2016 20:19

Доверие / The Trust (2016) HDRip - Производство: Великобритания, The Electric Shadow Company, Hassell Free Production, Highland Film Group, Ingenious Media, Prettybird, Saban Films, Saeculum Productions
Жанр: Триллер, Криминал
Режиссеры: Алекс Брюэр, Бенжамин Брюэр
Актеры: Николас Кейдж, Элайджа Вуд, Джерри Льюис, Стивен Уильямс, Скай Феррейра, Кевин Уайзман, Лиза Гарднер, Кристи Беран, Джеффри Ховард, Томми Вегас
Описание:
Парочка коррумпированных полицейских в отделе улик обнаруживает сейф с нарко-деньгами. Решив похитить тайник, они не подозревают, что вступают в игру за собственные жизни.-Возраст: 16+ (зрителям, достигшим 16 лет)
Рейтинг MPAA: R (лицам до 17 лет обязательно присутствие взрослого)
Дата мировой премьеры: 13 марта 2016

Продолжительность: 01:31:40
Качество видео: HDRip-Перевод: Любительский многоголосый
Субтитры: Английские (вшитые, отключаемые)
Реклама: Присутствуют вставки голосовой и текстовой рекламы.
Видео: MPEG4, XviD, 720x384 (1.875), 23.976 fps, 1 925 Kbps (0.290 bit/pixel)
Аудио: AC-3, 48.0 KHz, 2 ch, 192 Kbps, CBR (Russian)

Mediainfo:

Формат : AVI
Формат/Информация : Audio Video Interleave
Размер файла : 1,37 Гбайт
Продолжительность : 1 ч. 32 м.
Общий поток : 2126 Кбит/сек
Программа кодирования : VirtualDubMod 1.5.10.2 (build 2540/release)
Библиотека кодирования : VirtualDubMod build 2540/release
Видео
Идентификатор : 0
Формат : MPEG-4 Visual
Профиль формата : Advanced [email protected]
Параметр BVOP формата : 2
Параметр QPel формата : Нет
Параметр GMC формата : Без точки перехода
Параметр матрицы формата : Default (MPEG)
Идентификатор кодека : XVID
Идентификатор кодека/Подсказка : XviD
Продолжительность : 1 ч. 32 м.
Битрейт : 1925 Кбит/сек
Ширина : 720 пикселей
Высота : 384 пикселя
Соотношение сторон : 1,85:1
Частота кадров : 23,976 кадра/сек
Цветовое пространство : YUV
Субдискретизация насыщенности : 4:2:0
Битовая глубина : 8 бит
Тип развёртки : Прогрессивная
Метод сжатия : С потерями
Бит/(Пиксели*Кадры) : 0.290
Размер потока : 1,24 Гбайт (91%)
Библиотека кодирования : XviD 1.2.1 (UTC 2008-12-04)
Аудио
Идентификатор : 1
Формат : AC-3
Формат/Информация : Audio Coding 3
Расширение режима : CM (complete main)
Параметр Endianness формата : Big
Идентификатор кодека : 2000
Продолжительность : 1 ч. 32 м.
Вид битрейта : Постоянный
Битрейт : 192 Кбит/сек
Каналы : 2 канала
Расположение каналов : Front: L R
Частота : 48,0 КГц
Битовая глубина : 16 бит
Метод сжатия : С потерями
Размер потока : 127 Мбайт (9%)
Выравнивание : Разделение по промежуткам
Продолжительность промежутка : 42 мс. (1,00 видеокадр)
Время предзагрузки промежутка : 500 мс.
Скриншоты:
Яндекс.Метрика
Рейтинг@Mail.ru