Перевозчик (Серии 1—16 из 16) (Сергей Полянский) [2016, боевик, HDTVRip]

 

Создавать темы 08-Апр-2016 16:30

--Перевозчик--
  • Год выпуска: 2016
  • Страна: Россия / «Форвард-фильм», «Центр кинопроизводства»
  • Жанр: боевик
  • Продолжительность: 16 х ~00:45:00
  • Перевод: Не требуется-
  • Режиссёр: Сергей Полянский-
  • В ролях: Алексей Комашко, Николай Козак, Денис Рожков, Алексей Матошин, Игорь Баголей, Андрей Курилов, Александр Шишкин, Александр Семенов, Валерий Смекалов, Юрий Лебедев...-
  • Олег Грановский - пример идеального мужа, друга и отличного водителя. У него было двое лучших товарищей, с которыми дружили они еще с самого детдома, поэтому их отношения были бесценны для всех троих.
    Пережили они многое. Даже работали перевозчиками денег на инкассаторской машине они вместе. Но вдруг при транспортировке зарплаты на одну из фабрик города от внезапного удара Олег потерял сознание. Он не помнил, что было после. Но стал единственным подозреваемым в убийстве друзей и краже денег. Ведь все факты повернулись против. Но он не смог бы лишить жизни человека. Хозяева миллионов потребовали вернуть украденные не им деньги, иначе расправятся с его семьей. А полицейские посадят его при выходе из больницы, и даже эксперты, изучившие оружие с места убийства, уверены, что причастен к холодной расправе именно он.
    У Олега получилось бежать. Теперь только от него зависит итог расследования кровавого преступления. Но раскрытые им факты его не обрадовали, потому что от родного человека он не ожидал подлости...
    -
  • Премьера в России: 28 марта 2016 (НТВ)--
  • --
  • Качество видео: HDTVRip
  • Формат видео: AVI
  • Видео кодек: XviD
  • Аудио кодек: МР3
  • Видео: 624x352 (1.78:1), 25.000 fps, XviD MPEG-4, ~730 kbps avg, 0.132 bit/pixel
  • Аудио: 48.0 kHz, MPEG Audio Layer 3, 2 ch, ~128.00 kbps avg
  • Субтитры: нет
--

Media Info

General
Complete name : W:\ОРЛОВ С А\Торренты\Завершенные торренты\Perevozchik.2016.XviD.HDTVRip.by.GeneralFilm\serija.01.avi
Format : AVI
Format/Info : Audio Video Interleave
File size : 278 MiB
Duration : 45mn 9s
Overall bit rate : 862 Kbps
Writing application : VirtualDubMod 1.5.10.3 | www.virtualdub-fr.org || (build 2550/release)
Writing library : VirtualDubMod build 2550/release
Video
ID : 0
Format : MPEG-4 Visual
Format profile : Advanced [email protected]
Format settings, BVOP : 1
Format settings, QPel : No
Format settings, GMC : No warppoints
Format settings, Matrix : Custom
Codec ID : XVID
Codec ID/Hint : XviD
Duration : 45mn 9s
Bit rate : 724 Kbps
Width : 624 pixels
Height : 352 pixels
Display aspect ratio : 16:9
Frame rate : 25.000 fps
Color space : YUV
Chroma subsampling : 4:2:0
Bit depth : 8 bits
Scan type : Progressive
Compression mode : Lossy
Bits/(Pixel*Frame) : 0.132
Stream size : 234 MiB (84%)
Writing library : XviD 73
Audio
ID : 1
Format : MPEG Audio
Format version : Version 1
Format profile : Layer 3
Codec ID : 55
Codec ID/Hint : MP3
Duration : 45mn 9s
Bit rate mode : Constant
Bit rate : 128 Kbps
Channel(s) : 2 channels
Sampling rate : 48.0 KHz
Compression mode : Lossy
Stream size : 41.3 MiB (15%)
Alignment : Aligned on interleaves
Interleave, duration : 40 ms (1.00 video frame)
Interleave, preload duration : 504 ms
Writing library : LAME3.99r
Encoding settings : -m s -V 4 -q 0 -lowpass 17 -b 128
---- --
Яндекс.Метрика
Рейтинг@Mail.ru