Лестница в небеса (2013) WEB-DLRip (серии 1-24 из 24)

 

Создавать темы 05-Апр-2016 13:08

-Лестница в небеса (2013) WEB-DLRip (серии 1-24 из 24)- Производство: Россия / "Дуэт"
Жанр: драма
Режиссер: Григорий Любомиров
Актеры: Микаэл Арамян, Вера Житницкая, Нил Кропалов, Екатерина Симаходская, Янина Соколовская, Александр Песков, Оксана Дорохина, Михаил Полосухин, Игорь Карташёв, Дмитрий Сотириади, Дэни Аласания, Ольга Баранова, Максим Бычков, Вероника Амирханова, Артём Мурадов и др.
Описание:
История любви современных Ромео и Джульетты. Вот уже 10 лет, как Артем приходит на берег моря и вспоминает историю своей первой любви. Аня, так зовут девочку, с которой прошло детство Артема. Их детская дружба переросла в чистую юношескую любовь. Любовь сильную и светлую, сошедшую с небес… Окружающие - жадные, завистливые и злые люди не поняли глубины их чувств, потому, что были слишком земные ... И они сделали все, чтобы эта любовь не выжила на Земле Но Небеса, подарившие им эту любовь, приняли ее в свои объятия… В детстве Артем обещал Анне построить Лестницу в небеса и выполнил свое обещание… Детская дружба была очень крепкой. Они почти не расставались. и им было хорошо вдвоем. А потом пришла беда… Сначала умерла мама Ани. Потом в автокатастрофе погиб отец Артема. Горе детей было велико и сблизило их еще больше… Время шло - они взрослели… Дружба стала перерастать в первое чувство… они готовы были провести всю жизнь на любимом берегу их детства, но у жизни на них были свои планы… Артем из очень богатой семьи. Единственный наследник крупного фамильного бизнеса. После гибели отца, холдингом, временно руководит его мать - Ирина, пока Артем достигнет совершеннолетия, получит соответствующее образование и сможет принять управление компанией. Отец Ани, Кирилл - известный архитектор, вдовец и завидный жених и в их жизни не могла не появиться мачеха. И она появилась. Авдотья Макарова, известная актриса, красивая и статная женщина, быстро вскружила голову одинокому Кириллу и стала его женой. Она вошла в их дом и детство Ани закончилось. Кирилл был влюблен как мальчишка и Авдотья, быстро освоившись, легко управляла и им и домом. Вместе с ней в доме появились ее дети-подростки, которых, экзальтированная мать назвала Тристаном и Изольдой. У Ани началась другая жизнь…-
Продолжительность: ~00:55:00 серия
Качество видео: WEB-DLRip-Видео: XVID, 720x400 (16:9), ~1800 Kbps
Аудио: AC3, 2 ch, 192 Kbps, CBR

MediaInfo:

Общее
Полное имя                               : F:\DOWNLOADS\Лестница в небеса (2013) WEB-DLRip\Лестница в небеса - 01 серия.avi
Формат                                   : AVI
Формат/Информация                        : Audio Video Interleave
Размер файла                             : 776 Мбайт
Продолжительность                        : 54 м.
Общий поток                              : 2002 Кбит/сек
Программа кодирования                    : VirtualDubMod 1.5.10.3 | (build 2550/release)
Библиотека кодирования                   : VirtualDubMod build 2550/release
Видео
Идентификатор                            : 0
Формат                                   : MPEG-4 Visual
Профиль формата                          : Advanced [email protected]
Параметр BVOP формата                    : 1
Параметр QPel формата                    : Нет
Параметр GMC формата                     : Без точки перехода
Параметр матрицы формата                 : Default (MPEG)
Идентификатор кодека                     : XVID
Идентификатор кодека/Подсказка           : XviD
Продолжительность                        : 54 м.
Битрейт                                  : 1800 Кбит/сек
Ширина                                   : 720 пикселей
Высота                                   : 400 пикселей
Соотношение сторон                       : 16:9
Частота кадров                           : 25,000 кадров/сек
Цветовое пространство                    : YUV
Субдискретизация насыщенности            : 4:2:0
Битовая глубина                          : 8 бит
Тип развёртки                            : Прогрессивная
Метод сжатия                             : С потерями
Бит/(Пиксели*Кадры)                      : 0.250
Размер потока                            : 698 Мбайт (90%)
Библиотека кодирования                   : XviD 73
Аудио
Идентификатор                            : 1
Формат                                   : AC-3
Формат/Информация                        : Audio Coding 3
Расширение режима                        : CM (complete main)
Параметр Endianness формата              : Big
Идентификатор кодека                     : 2000
Продолжительность                        : 54 м.
Вид битрейта                             : Постоянный
Битрейт                                  : 192 Кбит/сек
Каналы                                   : 2 канала
Расположение каналов                     : Front: L R
Частота                                  : 44,1 КГц
Частота кадров                           : 28,711 кадров/сек (1536 spf)
Метод сжатия                             : С потерями
Размер потока                            : 74,5 Мбайт (10%)
Выравнивание                             : Разделение по промежуткам
Продолжительность промежутка             : 40  мс. (1,00 видеокадр)
Время предзагрузки промежутка            : 500  мс.
Скриншоты:
Яндекс.Метрика
Рейтинг@Mail.ru