[ Сегодня на трекере фрилич! Идет свободное скачивание без начисления Download ]

Святые из Бундока — Дилогия / The Boondock Saints — Dilogy (Трой Даффи) [1999, 2009, боевик, триллер, комедия, BDRip] MVO

 

Создавать темы 04-Апр-2016 09:35

--Святые из Бундока — Дилогия / The Boondock Saints — Dilogy-- ---Год выпуска: 1999, 2009
Страна: США, Канада
Производство: B.D.S. Productions Inc., Brood Syndicate, CB Productions, Stage 6 Films, ...
Жанр: боевик, триллер, комедия
---

Святые из Бундока / The Boondock Saints (1999)

--Святые из Бундока (Святые из трущоб) / The Boondock Saints-- Год выпуска: 1999
Страна: США, Канада
Производство: B.D.S. Productions Inc., Brood Syndicate, CB Productions,...
Жанр: боевик, триллер, комедия
Продолжительность: 01:48:26
Перевод: Профессиональный (многоголосый закадровый)-Режиссер: Трой Даффи-В ролях: Уиллем Дефо, Шон Патрик Флэнери, Норман Ридус, Дэвид Делла Рокко, Билли Коннолли, Дэвид Ферри, Брайан Махони, Боб Марли, Ричард, Ричард Фицпатрик, Уильям Ян...-Описание: Чего только не бывает на свете! Два обычных ирландских парня, братья Коннор и Мерфи, преспокойно жили и работали в своем родном Бостоне, пока в один прекрасный день на них не снизошло озарение: сам Бог послал их на землю с особой миссией, наделив святой силой, чтобы очистить мир от зла. И братья взялись за дело со всей серьезностью, присущей ирландцам…
Вскоре местную мафию охватывает настоящая паника — ведь методы «святых» не отличаются особой гуманностью, зато оказались очень эффективными — кровь полилась рекой!
Массовый отстрел мафиози не смог не привлечь внимания ФБР. Спецагент Пол Смекер, ведущий расследование, попадает в непростую ситуацию: служебный долг требует пресечь деятельность «святых братьев», однако в душе он не только сочувствует им, но даже готов присоединится к исполнителям «священной» миссии...-- --Качество видео: BDRip
Формат видео: AVI
Видео кодек: XviD
Аудио кодек: MP3
Видео: 720x304 (2.35:1), 23.976 fps, XviD MPEG-4, ~1966 kbps avg, 0.375 bit/pixel
Аудио: 48.0 kHz, MPEG Audio Layer 3, 2 ch, ~128.00 kbps avg
Субтитры: нет
-

Media Info

General
Complete name : W:\O.S.A.\Торренты\Завершенные торренты\Святые из Бундока [Дилогия]\Святые из Бундока 1.avi
Format : AVI
Format/Info : Audio Video Interleave
File size : 1.59 GiB
Duration : 1h 48mn
Overall bit rate : 2 103 Kbps
Movie name : Svyaty'e.Iz.Bundoka.1999.DUAL.BDRip.XviD.AC3.-HQCLUB
Director : kingsize87
Writing application : VirtualDubMod 1.5.10.2 (build 2540/release)
Writing library : VirtualDubMod build 2540/release
Copyright : http://hqclub.net/
Comment : 10.03.2010
Video
ID : 0
Format : MPEG-4 Visual
Format profile : Advanced [email protected]
Format settings, BVOP : 1
Format settings, QPel : No
Format settings, GMC : No warppoints
Format settings, Matrix : Custom
Codec ID : XVID
Codec ID/Hint : XviD
Duration : 1h 48mn
Bit rate : 1 966 Kbps
Width : 720 pixels
Height : 304 pixels
Display aspect ratio : 2.35:1
Frame rate : 23.976 fps
Color space : YUV
Chroma subsampling : 4:2:0
Bit depth : 8 bits
Scan type : Progressive
Compression mode : Lossy
Bits/(Pixel*Frame) : 0.375
Stream size : 1.49 GiB (93%)
Writing library : XviD 1.2.1 (UTC 2008-12-04)
Audio
ID : 1
Format : MPEG Audio
Format version : Version 1
Format profile : Layer 3
Codec ID : 55
Codec ID/Hint : MP3
Duration : 1h 48mn
Bit rate mode : Constant
Bit rate : 128 Kbps
Channel(s) : 2 channels
Sampling rate : 48.0 KHz
Compression mode : Lossy
Stream size : 99.3 MiB (6%)
Alignment : Aligned on interleaves
Interleave, duration : 42 ms (1.00 video frame)
Interleave, preload duration : 504 ms
----
-

Святые из Бундока 2: День всех святых / The Boondock Saints II: All Saints Day (2009)

--Святые из Бундока 2: День всех святых / The Boondock Saints II: All Saints Day-- Год выпуска: 2009
Страна: США
Производство: CB Productions, Stage 6 Films
Жанр: боевик, триллер, комедия
Продолжительность: 01:57:30
Перевод: Профессиональный (многоголосый закадровый)-Режиссер: Трой Даффи-В ролях: Шон Патрик Флэнери, Норман Ридус, Билли Коннолли, Клифтон Коллинз мл., Джули Бенц, Питер Фонда, Пол Йоханссон, Джадд Нельсон, Дэвид Делла Рокко, Боб Марли...-Описание: Последние 8 лет братья жили вместе с отцом на ферме в глубинке Ирландии. Однажды их дядя рассказывает им о слухах, что они причастны к убийству католического священника Бостона. Парни возвращаются в Бостон, чтобы очистить свою испорченную репутацию, и найти людей, подставивших их.-- --Качество видео: BDRip
Формат видео: AVI
Видео кодек: XviD
Аудио кодек: AC3
Видео: 720x304 (2.35:1), 23.976 fps, XviD MPEG-4, ~1871 kbps avg, 0.356 bit/pixel
Аудио #1: [RUS] 48.0 kHz, AC3 Dolby Digital, 3/2 (L,C,R,l,r) + LFE ch, ~384.00 kbps avg
Аудио #2: [ENG] 48.0 kHz, AC3 Dolby Digital, 3/2 (L,C,R,l,r) + LFE ch, ~384.00 kbps avg
Субтитры: нет
-

Media Info

General
Complete name : W:\O.S.A.\Торренты\Завершенные торренты\Святые из Бундока [Дилогия]\Святые из Бундока 2.avi
Format : AVI
Format/Info : Audio Video Interleave
File size : 2.18 GiB
Duration : 1h 57mn
Overall bit rate : 2 653 Kbps
Movie name : Svyatie.iz.Bundoka.2.chopper887
Director : chopper887
Genre : Action
Writing application : VirtualDubMod 1.5.10.3 | www.virtualdub-fr.org || (build 2550/release)
Original source form/Name : Movie
Video
ID : 0
Format : MPEG-4 Visual
Format profile : Advanced [email protected]
Format settings, BVOP : 2
Format settings, QPel : No
Format settings, GMC : No warppoints
Format settings, Matrix : Custom
Codec ID : XVID
Codec ID/Hint : XviD
Duration : 1h 57mn
Bit rate : 1 871 Kbps
Width : 720 pixels
Height : 304 pixels
Display aspect ratio : 2.35:1
Frame rate : 23.976 fps
Color space : YUV
Chroma subsampling : 4:2:0
Bit depth : 8 bits
Scan type : Progressive
Compression mode : Lossy
Bits/(Pixel*Frame) : 0.356
Stream size : 1.54 GiB (71%)
Writing library : XviD 63
Audio #1
ID : 1
Format : AC-3
Format/Info : Audio Coding 3
Mode extension : CM (complete main)
Codec ID : 2000
Duration : 1h 57mn
Bit rate mode : Constant
Bit rate : 384 Kbps
Channel(s) : 6 channels
Channel positions : Front: L C R, Side: L R, LFE
Sampling rate : 48.0 KHz
Bit depth : 16 bits
Compression mode : Lossy
Stream size : 323 MiB (14%)
Alignment : Split accross interleaves
Interleave, duration : 42 ms (1.00 video frame)
Interleave, preload duration : 500 ms
Audio #2
ID : 2
Format : AC-3
Format/Info : Audio Coding 3
Mode extension : CM (complete main)
Codec ID : 2000
Duration : 1h 57mn
Bit rate mode : Constant
Bit rate : 384 Kbps
Channel(s) : 6 channels
Channel positions : Front: L C R, Side: L R, LFE
Sampling rate : 48.0 KHz
Bit depth : 16 bits
Compression mode : Lossy
Stream size : 323 MiB (14%)
Alignment : Split accross interleaves
Interleave, duration : 42 ms (1.00 video frame)
Interleave, preload duration : 500 ms
----
-- --
Яндекс.Метрика
Рейтинг@Mail.ru