Перевозчик (Серии 1—16 из 16) (Сергей Полянский) [2016, боевик, HDTVRip]

 

Создавать темы 29-Мар-2016 10:12

--Перевозчик--
  • Год выпуска: 2016
  • Страна: Россия / «Форвард-фильм», «Центр кинопроизводства»
  • Жанр: боевик
  • Продолжительность: 16 х ~00:45:00
  • Перевод: Не требуется-
  • Режиссёр: Сергей Полянский-
  • В ролях: Алексей Комашко, Николай Козак, Денис Рожков, Алексей Матошин, Игорь Баголей, Андрей Курилов, Александр Шишкин, Александр Семенов, Валерий Смекалов, Юрий Лебедев...-
  • Олег Грановский - пример идеального мужа, друга и отличного водителя. У него было двое лучших товарищей, с которыми дружили они еще с самого детдома, поэтому их отношения были бесценны для всех троих.
    Пережили они многое. Даже работали перевозчиками денег на инкассаторской машине они вместе. Но вдруг при транспортировке зарплаты на одну из фабрик города от внезапного удара Олег потерял сознание. Он не помнил, что было после. Но стал единственным подозреваемым в убийстве друзей и краже денег. Ведь все факты повернулись против. Но он не смог бы лишить жизни человека. Хозяева миллионов потребовали вернуть украденные не им деньги, иначе расправятся с его семьей. А полицейские посадят его при выходе из больницы, и даже эксперты, изучившие оружие с места убийства, уверены, что причастен к холодной расправе именно он.
    У Олега получилось бежать. Теперь только от него зависит итог расследования кровавого преступления. Но раскрытые им факты его не обрадовали, потому что от родного человека он не ожидал подлости...
    -
  • Премьера в России: 28 марта 2016 (НТВ)--
  • --
  • Качество видео: HDTVRip
  • Формат видео: AVI
  • Видео кодек: XviD
  • Аудио кодек: AC3
  • Видео: 720x400 (1.80:1), 25.000 fps, XviD MPEG-4, ~1500 kbps avg, 0.208 bit/pixel
  • Аудио: 48.0 kHz, AC3 Dolby Digital, 2/0 (L,R) ch, ~192.00 kbps avg
  • Субтитры: нет
--

Внимание ! Раздача ведётся путём добавления новых серий !!!

Внимание! Раздача ведётся путём добавления новых серий; при каждом добавлении создаётся новый торрент. Чтобы начать докачку новой серии, пользователям необходимо сделать следующее:
(1) остановить скачивание,раздачу,
(2) удалить старый торрент у себя из клиента (старые серии удалять не надо),
(3) скачать новый торрент и запустить его у себя в клиенте вместо старого, при этом указать клиенту путь в старую папку куда и должно происходить скачивание новых серий.
Ваш клиент при этом должен произвести хеширование (проверку) старой папки (если не производит сами - помогите ему сделать это), и будет докачивать только те серии которых у вас ещё нет. Старые серии при этом не удаляются, а продолжают раздаваться!
Eсли вы уже удалили старые серии, то предотвратить повторную закачку старых серий можно, отжав галочку в соответствующих местах при запуске нового торрента. По возможности, желательно не удалять старые серии как можно дольше чтобы релизёр не столько продолжал раздавать старые серии, а смог сконцентрироваться на новых.

Media Info

General
Complete name : W:\O.S.A.\Торренты\Завершенные торренты\Perevozchik.2015.HDTVRip.Files-x\01.Perevozchik.2015.HDTVRip.Files-x.avi
Format : AVI
Format/Info : Audio Video Interleave
File size : 550 MiB
Duration : 45mn 22s
Overall bit rate : 1 696 Kbps
Writing application : VirtualDubModRus 1.5.10.2 (build 2542/release)
Writing library : VirtualDubMod build 2542/release
Video
ID : 0
Format : MPEG-4 Visual
Format profile : Advanced [email protected]
Format settings, BVOP : 1
Format settings, QPel : No
Format settings, GMC : No warppoints
Format settings, Matrix : Custom
Codec ID : XVID
Codec ID/Hint : XviD
Duration : 45mn 22s
Bit rate : 1 494 Kbps
Width : 720 pixels
Height : 400 pixels
Display aspect ratio : 16:9
Frame rate : 25.000 fps
Color space : YUV
Chroma subsampling : 4:2:0
Bit depth : 8 bits
Scan type : Progressive
Compression mode : Lossy
Bits/(Pixel*Frame) : 0.208
Stream size : 485 MiB (88%)
Writing library : XviD 73
Audio
ID : 1
Format : AC-3
Format/Info : Audio Coding 3
Mode extension : CM (complete main)
Codec ID : 2000
Duration : 45mn 22s
Bit rate mode : Constant
Bit rate : 192 Kbps
Channel(s) : 2 channels
Channel positions : Front: L R
Sampling rate : 48.0 KHz
Bit depth : 16 bits
Compression mode : Lossy
Stream size : 62.3 MiB (11%)
Alignment : Split accross interleaves
Interleave, duration : 40 ms (1.00 video frame)
Interleave, preload duration : 500 ms
---- --

Создавать темы 08-Апр-2016 06:14 (спустя 9 дней)

08.04.2016 добавлены серии 15—16 !!!
Яндекс.Метрика
Рейтинг@Mail.ru