[ Сегодня на трекере фрилич! Идет свободное скачивание без начисления Download ]

Звезды YouTube / Зірки YouTube. Выпуск №103 (Телекомпания: pic ICTV)[2013,Юмор, SATRip]

 

Создавать темы 28-Дек-2013 18:23

- Звезды YouTube / Зірки YouTube. Выпуск №103 (2013) SATRip [RUS/UKR] - Режиссер / Телекомпания: ICTV
Русское название: Звезды YouTube
Оригинальное название: Зірки YouTube
Год выпуска: 2013
Жанр: Юмор
Язык: Русский/Украинский
Описание:
Ведущий Егор Крутоголов познакомит вас с лучшим видео с YouTube. Миллионные просмотры и тысячи комментариев. Веселее, интереснее и экстремальные. Любой может стать "Звездой YouTube!" Достаточно снять видео и выложить его в интернет.
Ведущий: Егор Крутоголов
Продолжительность: ~ 00:46:41
Видеокодек: XVID
Битрейт видео: ~1450 kb/s
Размер кадра: 720 x 528
Качество видео: SATRip
Аудиокодек: MP3, 2ch.
Битрейт аудио: 192 kb/s

MediaInfo

Формат : AVI
Формат/Информация : Audio Video Interleave
Размер файла : 551 Мбайт
Продолжительность : 46 м.
Общий поток : 1650 Кбит/сек
Программа кодирования : VirtualDubMod 1.5.10.3 | www.virtualdub-fr.org || (build 2550/release)
Библиотека кодирования : VirtualDubMod build 2550/release
Видео
Идентификатор : 0
Формат : MPEG-4 Visual
Профиль формата : Advanced [email protected]
Параметр BVOP формата : 1
Параметр QPel формата : Нет
Параметр GMC формата : Без точки перехода
Параметр матрицы формата : Default (H.263)
Идентификатор кодека : XVID
Идентификатор кодека/Подсказка : XviD
Продолжительность : 46 м.
Битрейт : 1449 Кбит/сек
Ширина : 720 пикселей
Высота : 528 пикселей
Соотношение сторон : 4:3
Частота кадров : 25,000 кадров/сек
Цветовое пространство : YUV
Субдискретизация насыщенности : 4:2:0
Битовая глубина : 8 бит
Тип развёртки : Прогрессивная
Метод сжатия : С потерями
Бит/(Пиксели*Кадры) : 0.152
Размер потока : 484 Мбайт (88%)
Библиотека кодирования : XviD 1.2.1 (UTC 2008-12-04)
Аудио
Идентификатор : 1
Формат : MPEG Audio
Версия формата : Version 1
Профиль формата : Layer 3
Режим : Joint stereo
Расширение режима : MS Stereo
Идентификатор кодека : 55
Идентификатор кодека/Подсказка : MP3
Продолжительность : 46 м.
Вид битрейта : Постоянный
Битрейт : 192 Кбит/сек
Каналы : 2 канала
Частота : 48,0 КГц
Метод сжатия : С потерями
Размер потока : 64,1 Мбайт (12%)
Выравнивание : Соединение по промежуткам
Продолжительность промежутка : 40 мс. (1,00 видеокадр)
Время предзагрузки промежутка : 504 мс.
Библиотека кодирования : LAME3.99r
Настройки программы : -m j -V 4 -q 2 -lowpass 18.6 -b 192

Скриншоты

Яндекс.Метрика
Рейтинг@Mail.ru