(Авторская песня) Владимир Высоцкий - Все военные песни (2CD) - 2005 [APE, image +.cue, lossless]

 

Создавать темы 26-Мар-2016 14:42

-Владимир Высоцкий - Все военные песни (2CD) - 2005-- Год издания: 2005
Страна: Russia
Жанр: Авторская песня
Продолжительность: 01:55:47-Лейбл издания: Bomba Music
Страна-выпуска диска: Russia
Номер по каталогу: 02 - 35/36-Формат: APE
Битрейт аудио: Lossless
Тип рипа: image +.cue
Наличие сканов в содержимом раздачи: да
-

Трэклист

CD 1 | 00:54:56


01.Ленинградская блокада(01:11)
02.Про Серёжку Фомина(02:38)
03.Штрафные батальоны(02:53)
04.Песня о госпитале(01:07)
05.Все ушли на фронт(02:23)
06.Солдаты группы 'Центр'(01:27)
07.Песня о звёздах(02:10)
08.Братские могилы(01:19)
09.Высота(01:30)
10.Песня про снайпера, который через 15 лет после войны спился и сидит в ресторане(00:48)
11.Военная песня(02:31)
12.Случай в ресторане(01:50)
13.Песня о новом времени(02:04)
14.Спасите наши души(04:36)
15.Письмо(02:43)
16.Песня лётчика(02:41)
17.Песня самолёта-истребителя(03:29)
18.Давно смолкли залпы орудий...(02:13)
19.Бросьте скуку, как корку арбузную...(01:11)
20.Рядовой Борисов!...(03:06)
21.Аисты(03:21)
22.Песня о Земле(02:06)
23.Сыновья уходят в бой(02:30)
24.Он не вернулся из боя(03:21)

CD 2 | 01:00:52


01.Охота на кабанов(02:09)
02.Зарыты в нашу память на века...(04:25)
03.Разведка боем(02:26)
04.О моём старшине(03:03)
05.Так случилось, мужчины ушли...(03:13)
06.Чёрные бушлаты(03:58)
07.Мы вращаем землю(03:04)
08.Тот, который не стрелял(02:47)
09.Песня Вани у Марьи(02:33)
10.Расстел горного эха(02:16)
11.Песня Солодова(02:21)
12.Песня о погибшем лётчике(04:45)
13.Я ещё не в угаре...(02:51)
14.Мы взлетали как утки...(02:39)
15.Баллада о детстве(05:32)
16.Всё меньше вас, участники войны... (стихотворение)(00:35)
17.Вальс 'О конце войны'(03:41)
18.Марш 'О конце войны'(02:43)
19.Белый вальс(05:58)
-

Лог создания рипа

CD 1

Exact Audio Copy V0.99 prebeta 4 from 23. January 2008
Отчёт EAC об извлечении, выполненном 22. августа 2008, 20:31
Владимир Высоцкий / Все военные песни CD1
Дисковод: ASUS    CRW-5232AS   Adapter: 3  ID: 0
Режим чтения                 : Достоверность
Использование точного потока : Да
Отключение кэша аудио        : Да
Использование указателей C2  : Нет
Коррекция смещения при чтении                     : 6
Способность читать области Lead-in и Lead-out     : Нет
Заполнение пропущенных сэмплов тишиной            : Да
Удаление блоков с тишиной в начале и конце        : Нет
При вычислениях CRC использовались нулевые сэмплы : Да
Интерфейс                                         : Установленный внешний ASPI-интерфейс
Выходной формат          : Monkey's Audio (без потерь)
Выбранный битрейт        : Normal Lossless Compression
Качество                 : Высокий
Добавление ID3-тэга      : Нет
Утилита сжатия           : C:\Program Files\Monkey's Audio\MAC.exe
TOC извлечённого CD
     Трек |   Старт  | Длительность | Начальный сектор | Конечный сектор
    ---------------------------------------------------------------------
       1  |  0:00.00 |    1:10.54   |           0      |       5303
       2  |  1:10.54 |    2:37.33   |        5304      |      17111
       3  |  3:48.12 |    2:52.07   |       17112      |      30018
       4  |  6:40.19 |    1:06.12   |       30019      |      34980
       5  |  7:46.31 |    2:22.03   |       34981      |      45633
       6  | 10:08.34 |    1:26.44   |       45634      |      52127
       7  | 11:35.03 |    2:09.02   |       52128      |      61804
       8  | 13:44.05 |    1:19.00   |       61805      |      67729
       9  | 15:03.05 |    1:29.62   |       67730      |      74466
      10  | 16:32.67 |    0:47.18   |       74467      |      78009
      11  | 17:20.10 |    2:30.24   |       78010      |      89283
      12  | 19:50.34 |    1:49.26   |       89284      |      97484
      13  | 21:39.60 |    2:03.67   |       97485      |     106776
      14  | 23:43.52 |    4:35.65   |      106777      |     127466
      15  | 28:19.42 |    2:42.64   |      127467      |     139680
      16  | 31:02.31 |    2:40.23   |      139681      |     151703
      17  | 33:42.54 |    3:28.01   |      151704      |     167304
      18  | 37:10.55 |    2:12.31   |      167305      |     177235
      19  | 39:23.11 |    1:10.27   |      177236      |     182512
      20  | 40:33.38 |    3:05.65   |      182513      |     196452
      21  | 43:39.28 |    3:20.46   |      196453      |     211498
      22  | 46:59.74 |    2:05.16   |      211499      |     220889
      23  | 49:05.15 |    2:29.25   |      220890      |     232089
      24  | 51:34.40 |    3:20.68   |      232090      |     247157
Характеристики диапазона извлечения и сообщения об ошибках
Выбранный диапазон
     Имя файла W:\Музыка\1. Авторская песня\Владимир Высоцкий HQ\Владимир Высоцкий - Все военные песни\CD1\Владимир Высоцкий - Все военные песни CD1.wav
     Пиковый уровень 100.0 %
     Качество диапазона 100.0 %
     CRC теста B5BD518B
     CRC копии B5BD518B
     Копирование... OK
Ошибок не произошло
AccurateRip: сводка
Трек  1  нет в базе данных
Трек  2  нет в базе данных
Трек  3  нет в базе данных
Трек  4  нет в базе данных
Трек  5  нет в базе данных
Трек  6  нет в базе данных
Трек  7  нет в базе данных
Трек  8  нет в базе данных
Трек  9  нет в базе данных
Трек 10  нет в базе данных
Трек 11  нет в базе данных
Трек 12  нет в базе данных
Трек 13  нет в базе данных
Трек 14  нет в базе данных
Трек 15  нет в базе данных
Трек 16  нет в базе данных
Трек 17  нет в базе данных
Трек 18  нет в базе данных
Трек 19  нет в базе данных
Трек 20  нет в базе данных
Трек 21  нет в базе данных
Трек 22  нет в базе данных
Трек 23  нет в базе данных
Трек 24  нет в базе данных
Ни одного трека нет в базе AccurateRip
Конец отчёта

CD 2

Exact Audio Copy V0.99 prebeta 4 from 23. January 2008
Отчёт EAC об извлечении, выполненном 22. августа 2008, 20:58
Владимир Высоцкий / Все военные песни CD2
Дисковод: ASUS    CRW-5232AS   Adapter: 3  ID: 0
Режим чтения                 : Достоверность
Использование точного потока : Да
Отключение кэша аудио        : Да
Использование указателей C2  : Нет
Коррекция смещения при чтении                     : 6
Способность читать области Lead-in и Lead-out     : Нет
Заполнение пропущенных сэмплов тишиной            : Да
Удаление блоков с тишиной в начале и конце        : Нет
При вычислениях CRC использовались нулевые сэмплы : Да
Интерфейс                                         : Установленный внешний ASPI-интерфейс
Выходной формат          : Monkey's Audio (без потерь)
Выбранный битрейт        : Normal Lossless Compression
Качество                 : Высокий
Добавление ID3-тэга      : Нет
Утилита сжатия           : C:\Program Files\Monkey's Audio\MAC.exe
TOC извлечённого CD
     Трек |   Старт  | Длительность | Начальный сектор | Конечный сектор
    ---------------------------------------------------------------------
       1  |  0:00.00 |    2:08.73   |           0      |       9672
       2  |  2:08.73 |    4:24.52   |        9673      |      29524
       3  |  6:33.50 |    2:25.31   |       29525      |      40430
       4  |  8:59.06 |    3:02.07   |       40431      |      54087
       5  | 12:01.13 |    3:12.66   |       54088      |      68553
       6  | 15:14.04 |    3:57.52   |       68554      |      86380
       7  | 19:11.56 |    3:03.65   |       86381      |     100170
       8  | 22:15.46 |    2:46.43   |      100171      |     112663
       9  | 25:02.14 |    2:32.11   |      112664      |     124074
      10  | 27:34.25 |    2:15.63   |      124075      |     134262
      11  | 29:50.13 |    2:20.34   |      134263      |     144796
      12  | 32:10.47 |    4:44.07   |      144797      |     166103
      13  | 36:54.54 |    2:50.65   |      166104      |     178918
      14  | 39:45.44 |    2:38.22   |      178919      |     190790
      15  | 42:23.66 |    5:31.44   |      190791      |     215659
      16  | 47:55.35 |    0:34.53   |      215660      |     218262
      17  | 48:30.13 |    3:40.37   |      218263      |     234799
      18  | 52:10.50 |    2:42.59   |      234800      |     247008
      19  | 54:53.34 |    5:57.58   |      247009      |     273841
Характеристики диапазона извлечения и сообщения об ошибках
Выбранный диапазон
     Имя файла W:\Музыка\1. Авторская песня\Владимир Высоцкий HQ\Владимир Высоцкий - Все военные песни\CD2\Владимир Высоцкий - Все военные песни CD2.wav
     Пиковый уровень 71.4 %
     Качество диапазона 100.0 %
     CRC теста E253CEB9
     CRC копии E253CEB9
     Копирование... OK
Ошибок не произошло
AccurateRip: сводка
Трек  1  нет в базе данных
Трек  2  нет в базе данных
Трек  3  нет в базе данных
Трек  4  нет в базе данных
Трек  5  нет в базе данных
Трек  6  нет в базе данных
Трек  7  нет в базе данных
Трек  8  нет в базе данных
Трек  9  нет в базе данных
Трек 10  нет в базе данных
Трек 11  нет в базе данных
Трек 12  нет в базе данных
Трек 13  нет в базе данных
Трек 14  нет в базе данных
Трек 15  нет в базе данных
Трек 16  нет в базе данных
Трек 17  нет в базе данных
Трек 18  нет в базе данных
Трек 19  нет в базе данных
Ни одного трека нет в базе AccurateRip
Конец отчёта

Индексная карта (non-compilant .cue)

CD 1

REM GENRE Vocal
REM DATE 2005
REM DISCID 2A0CDF18
REM COMMENT "ExactAudioCopy v0.99pb4"
PERFORMER "Владимир Высоцкий"
TITLE "Все военные песни CD1"
FILE "Владимир Высоцкий - Все военные песни CD1.ape" WAVE
  TRACK 01 AUDIO
    TITLE "Ленинградская блокада"
    PERFORMER "Владимир Высоцкий"
    FLAGS DCP
    INDEX 01 00:00:00
  TRACK 02 AUDIO
    TITLE "Про Серёжку Фомина"
    PERFORMER "Владимир Высоцкий"
    FLAGS DCP
    INDEX 01 01:10:54
  TRACK 03 AUDIO
    TITLE "Штрафные батальоны"
    PERFORMER "Владимир Высоцкий"
    FLAGS DCP
    INDEX 01 03:48:12
  TRACK 04 AUDIO
    TITLE "Песня о госпитале"
    PERFORMER "Владимир Высоцкий"
    FLAGS DCP
    INDEX 01 06:40:19
  TRACK 05 AUDIO
    TITLE "Все ушли на фронт"
    PERFORMER "Владимир Высоцкий"
    FLAGS DCP
    INDEX 01 07:46:31
  TRACK 06 AUDIO
    TITLE "Солдаты группы 'Центр'"
    PERFORMER "Владимир Высоцкий"
    FLAGS DCP
    INDEX 01 10:08:34
  TRACK 07 AUDIO
    TITLE "Песня о звёздах"
    PERFORMER "Владимир Высоцкий"
    FLAGS DCP
    INDEX 01 11:35:03
  TRACK 08 AUDIO
    TITLE "Братские могилы"
    PERFORMER "Владимир Высоцкий"
    FLAGS DCP
    INDEX 01 13:44:05
  TRACK 09 AUDIO
    TITLE "Высота"
    PERFORMER "Владимир Высоцкий"
    FLAGS DCP
    INDEX 01 15:03:05
  TRACK 10 AUDIO
    TITLE "Песня про снайпера, который через 15 лет после войны спился и сидит в ресторане"
    PERFORMER "Владимир Высоцкий"
    FLAGS DCP
    INDEX 01 16:32:67
  TRACK 11 AUDIO
    TITLE "Военная песня"
    PERFORMER "Владимир Высоцкий"
    FLAGS DCP
    INDEX 01 17:20:10
  TRACK 12 AUDIO
    TITLE "Случай в ресторане"
    PERFORMER "Владимир Высоцкий"
    FLAGS DCP
    INDEX 01 19:50:34
  TRACK 13 AUDIO
    TITLE "Песня о новом времени"
    PERFORMER "Владимир Высоцкий"
    FLAGS DCP
    INDEX 01 21:39:60
  TRACK 14 AUDIO
    TITLE "Спасите наши души"
    PERFORMER "Владимир Высоцкий"
    FLAGS DCP
    INDEX 01 23:43:52
  TRACK 15 AUDIO
    TITLE "Письмо"
    PERFORMER "Владимир Высоцкий"
    FLAGS DCP
    INDEX 01 28:19:42
  TRACK 16 AUDIO
    TITLE "Песня лётчика"
    PERFORMER "Владимир Высоцкий"
    FLAGS DCP
    INDEX 01 31:02:31
  TRACK 17 AUDIO
    TITLE "Песня самолёта-истребителя"
    PERFORMER "Владимир Высоцкий"
    FLAGS DCP
    INDEX 01 33:42:54
  TRACK 18 AUDIO
    TITLE "Давно смолкли залпы орудий..."
    PERFORMER "Владимир Высоцкий"
    FLAGS DCP
    INDEX 01 37:10:55
  TRACK 19 AUDIO
    TITLE "Бросьте скуку, как корку арбузную..."
    PERFORMER "Владимир Высоцкий"
    FLAGS DCP
    INDEX 01 39:23:11
  TRACK 20 AUDIO
    TITLE "Рядовой Борисов!..."
    PERFORMER "Владимир Высоцкий"
    FLAGS DCP
    INDEX 01 40:33:38
  TRACK 21 AUDIO
    TITLE "Аисты"
    PERFORMER "Владимир Высоцкий"
    FLAGS DCP
    INDEX 01 43:39:28
  TRACK 22 AUDIO
    TITLE "Песня о Земле"
    PERFORMER "Владимир Высоцкий"
    FLAGS DCP
    INDEX 01 46:59:74
  TRACK 23 AUDIO
    TITLE "Сыновья уходят в бой"
    PERFORMER "Владимир Высоцкий"
    FLAGS DCP
    INDEX 01 49:05:15
  TRACK 24 AUDIO
    TITLE "Он не вернулся из боя"
    PERFORMER "Владимир Высоцкий"
    FLAGS DCP
    INDEX 01 51:34:40

CD 2

REM GENRE Vocal
REM DATE 2005
REM DISCID 050E4313
REM COMMENT "ExactAudioCopy v0.99pb4"
PERFORMER "Владимир Высоцкий"
TITLE "Все военные песни CD2"
FILE "Владимир Высоцкий - Все военные песни CD2.ape" WAVE
  TRACK 01 AUDIO
    TITLE "Охота на кабанов"
    PERFORMER "Владимир Высоцкий"
    FLAGS DCP
    INDEX 01 00:00:00
  TRACK 02 AUDIO
    TITLE "Зарыты в нашу память на века..."
    PERFORMER "Владимир Высоцкий"
    FLAGS DCP
    INDEX 01 02:08:73
  TRACK 03 AUDIO
    TITLE "Разведка боем"
    PERFORMER "Владимир Высоцкий"
    FLAGS DCP
    INDEX 01 06:33:50
  TRACK 04 AUDIO
    TITLE "О моём старшине"
    PERFORMER "Владимир Высоцкий"
    FLAGS DCP
    INDEX 01 08:59:06
  TRACK 05 AUDIO
    TITLE "Так случилось, мужчины ушли..."
    PERFORMER "Владимир Высоцкий"
    FLAGS DCP
    INDEX 01 12:01:13
  TRACK 06 AUDIO
    TITLE "Чёрные бушлаты"
    PERFORMER "Владимир Высоцкий"
    FLAGS DCP
    INDEX 01 15:14:04
  TRACK 07 AUDIO
    TITLE "Мы вращаем землю"
    PERFORMER "Владимир Высоцкий"
    FLAGS DCP
    INDEX 01 19:11:56
  TRACK 08 AUDIO
    TITLE "Тот, который не стрелял"
    PERFORMER "Владимир Высоцкий"
    FLAGS DCP
    INDEX 01 22:15:46
  TRACK 09 AUDIO
    TITLE "Песня Вани у Марьи"
    PERFORMER "Владимир Высоцкий"
    FLAGS DCP
    INDEX 01 25:02:14
  TRACK 10 AUDIO
    TITLE "Расстел горного эха"
    PERFORMER "Владимир Высоцкий"
    FLAGS DCP
    INDEX 01 27:34:25
  TRACK 11 AUDIO
    TITLE "Песня Солодова"
    PERFORMER "Владимир Высоцкий"
    FLAGS DCP
    INDEX 01 29:50:13
  TRACK 12 AUDIO
    TITLE "Песня о погибшем лётчике"
    PERFORMER "Владимир Высоцкий"
    FLAGS DCP
    INDEX 01 32:10:47
  TRACK 13 AUDIO
    TITLE "Я ещё не в угаре..."
    PERFORMER "Владимир Высоцкий"
    FLAGS DCP
    INDEX 01 36:54:54
  TRACK 14 AUDIO
    TITLE "Мы взлетали как утки..."
    PERFORMER "Владимир Высоцкий"
    FLAGS DCP
    INDEX 01 39:45:44
  TRACK 15 AUDIO
    TITLE "Баллада о детстве"
    PERFORMER "Владимир Высоцкий"
    FLAGS DCP
    INDEX 01 42:23:66
  TRACK 16 AUDIO
    TITLE "Всё меньше вас, участники войны... (стихотворение)"
    PERFORMER "Владимир Высоцкий"
    FLAGS DCP
    INDEX 01 47:55:35
  TRACK 17 AUDIO
    TITLE "Вальс 'О конце войны'"
    PERFORMER "Владимир Высоцкий"
    FLAGS DCP
    INDEX 01 48:30:13
  TRACK 18 AUDIO
    TITLE "Марш 'О конце войны'"
    PERFORMER "Владимир Высоцкий"
    FLAGS DCP
    INDEX 01 52:10:50
  TRACK 19 AUDIO
    TITLE "Белый вальс"
    PERFORMER "Владимир Высоцкий"
    FLAGS DCP
    INDEX 01 54:53:34
-- -Оформление: sergej644-
Яндекс.Метрика
Рейтинг@Mail.ru