[ Сегодня на трекере фрилич! Идет свободное скачивание без начисления Download ]

(Авторская песня) Владимир Высоцкий - Я Первый Раз В Италии 1979 (Solyd Records 1999) [APE, image +.cue, lossless]

 

Создавать темы 26-Мар-2016 14:28

-Владимир Высоцкий - Я Первый Раз В Италии 1979-- Год | Год издания: 1979 | 1999
Страна: USSR
Жанр: Авторская песня
Продолжительность: 01:02:38-Лейбл издания: Solyd Records
Страна-выпуска диска: Russia
Номер по каталогу: SLR 0207-Формат: APE
Битрейт аудио: Lossless
Тип рипа: image +.cue
Наличие сканов в содержимом раздачи: да
-

Трэклист


01.Дайте собакам мяса(02:13)
02.рассказ об Италии, о фильме для Итальянского телевидения(04:22)
03.Чужая колея(03:55)
04.рассказ об авторской песне, о её отличиях от ''официальной'' песни(02:18)
05.Конец охоты на волков, или Охота с вертолётов(04:13)
06.рассказ о ранних песнях, о разнице между ранними и новыми песнями(06:13)
07.Мать моя - давай рыдать...(02:15)
08.Письмо к другу, или Зарисовка о Париже(02:05)
09.''За меня невеста отрыдает честно...''(02:49)
10.''То ли - в избу и запеть...''(02:40)
11.Кони привередливые(04:49)
12.Спасите наши души(03:12)
13.Старый дом(03:51)
14.Rien ne va, plus rien ne va...(02:49)
15.''Я больше не избавлюсь от покоя...''(02:54)
16.Охота на волков(04:12)
17.Таганка(02:05)
18.Купола(05:53)
-

Лог создания рипа

Exact Audio Copy V0.99 prebeta 4 from 23. January 2008
Отчёт EAC об извлечении, выполненном 26. января 2009, 22:43
Владимир Высоцкий / Я первый раз в Италии...
Дисковод: PLEXTOR DVDR   PX-820SA   Adapter: 2  ID: 2
Режим чтения                 : Достоверность
Использование точного потока : Да
Отключение кэша аудио        : Да
Использование указателей C2  : Нет
Коррекция смещения при чтении                     : 48
Способность читать области Lead-in и Lead-out     : Нет
Заполнение пропущенных сэмплов тишиной            : Да
Удаление блоков с тишиной в начале и конце        : Нет
При вычислениях CRC использовались нулевые сэмплы : Да
Интерфейс                                         : Установленный внешний ASPI-интерфейс
Выходной формат : Внутренние WAV-операции
Формат сэмплов  : 44.100 Гц; 16 бит; стерео
TOC извлечённого CD
     Трек |   Старт  | Длительность | Начальный сектор | Конечный сектор
    ---------------------------------------------------------------------
       1  |  0:00.00 |    2:12.37   |           0      |       9936
       2  |  2:12.37 |    4:21.29   |        9937      |      29540
       3  |  6:33.66 |    3:54.19   |       29541      |      47109
       4  | 10:28.10 |    2:17.17   |       47110      |      57401
       5  | 12:45.27 |    4:13.00   |       57402      |      76376
       6  | 16:58.27 |    6:12.10   |       76377      |     104286
       7  | 23:10.37 |    2:14.39   |      104287      |     114375
       8  | 25:25.01 |    2:04.24   |      114376      |     123699
       9  | 27:29.25 |    2:48.17   |      123700      |     136316
      10  | 30:17.42 |    2:39.26   |      136317      |     148267
      11  | 32:56.68 |    4:48.20   |      148268      |     169887
      12  | 37:45.13 |    3:11.46   |      169888      |     184258
      13  | 40:56.59 |    3:50.07   |      184259      |     201515
      14  | 44:46.66 |    2:48.29   |      201516      |     214144
      15  | 47:35.20 |    2:53.05   |      214145      |     227124
      16  | 50:28.25 |    4:11.40   |      227125      |     245989
      17  | 54:39.65 |    2:04.45   |      245990      |     255334
      18  | 56:44.35 |    5:52.43   |      255335      |     281777
Характеристики диапазона извлечения и сообщения об ошибках
Выбранный диапазон
     Имя файла C:\Extract_temp\Vladimir Vysotskij - Ya pervyj raz v Italii\Владимир Высоцкий - Я первый раз в Италии....wav
     Пиковый уровень 100.0 %
     Качество диапазона 100.0 %
     CRC теста 2A69C011
     CRC копии 2A69C011
     Копирование... OK
Ошибок не произошло
Конец отчёта

Индексная карта (non-compilant .cue)

REM GENRE Chanson
REM DATE 1999
REM DISCID 060EAD12
REM COMMENT "ExactAudioCopy v0.99pb4"
PERFORMER "Владимир Высоцкий"
TITLE "Я первый раз в Италии..."
FILE "Владимир Высоцкий - Я первый раз в Италии....wav" WAVE
  TRACK 01 AUDIO
    TITLE "Дайте собакам мяса"
    PERFORMER "Владимир Высоцкий"
    INDEX 01 00:00:00
  TRACK 02 AUDIO
    TITLE "рассказ об Италии, о фильме для Итальянского телевидения"
    PERFORMER "Владимир Высоцкий"
    INDEX 01 02:12:37
  TRACK 03 AUDIO
    TITLE "Чужая колея"
    PERFORMER "Владимир Высоцкий"
    INDEX 01 06:33:66
  TRACK 04 AUDIO
    TITLE "рассказ об авторской песне, о её отличиях от ''официальной'' песни"
    PERFORMER "Владимир Высоцкий"
    INDEX 01 10:28:10
  TRACK 05 AUDIO
    TITLE "Конец охоты на волков, или Охота с вертолётов"
    PERFORMER "Владимир Высоцкий"
    INDEX 01 12:45:27
  TRACK 06 AUDIO
    TITLE "рассказ о ранних песнях, о разнице между ранними и новыми песнями"
    PERFORMER "Владимир Высоцкий"
    INDEX 01 16:58:27
  TRACK 07 AUDIO
    TITLE "Мать моя - давай рыдать..."
    PERFORMER "Владимир Высоцкий"
    INDEX 01 23:10:37
  TRACK 08 AUDIO
    TITLE "Письмо к другу, или Зарисовка о Париже"
    PERFORMER "Владимир Высоцкий"
    INDEX 01 25:25:01
  TRACK 09 AUDIO
    TITLE "''За меня невеста отрыдает честно...''"
    PERFORMER "Владимир Высоцкий"
    INDEX 01 27:29:25
  TRACK 10 AUDIO
    TITLE "''То ли - в избу и запеть...''"
    PERFORMER "Владимир Высоцкий"
    INDEX 01 30:17:42
  TRACK 11 AUDIO
    TITLE "Кони привередливые"
    PERFORMER "Владимир Высоцкий"
    INDEX 01 32:56:68
  TRACK 12 AUDIO
    TITLE "Спасите наши души"
    PERFORMER "Владимир Высоцкий"
    INDEX 01 37:45:13
  TRACK 13 AUDIO
    TITLE "Старый дом"
    PERFORMER "Владимир Высоцкий"
    INDEX 01 40:56:59
  TRACK 14 AUDIO
    TITLE "Rien ne va, plus rien ne va..."
    PERFORMER "Владимир Высоцкий"
    INDEX 01 44:46:66
  TRACK 15 AUDIO
    TITLE "''Я больше не избавлюсь от покоя...''"
    PERFORMER "Владимир Высоцкий"
    INDEX 01 47:35:20
  TRACK 16 AUDIO
    TITLE "Охота на волков"
    PERFORMER "Владимир Высоцкий"
    INDEX 01 50:28:25
  TRACK 17 AUDIO
    TITLE "Таганка"
    PERFORMER "Владимир Высоцкий"
    INDEX 01 54:39:65
  TRACK 18 AUDIO
    TITLE "Купола"
    PERFORMER "Владимир Высоцкий"
    INDEX 01 56:44:35
-- -Оформление: sergej644-
Яндекс.Метрика
Рейтинг@Mail.ru