[ Сегодня на трекере фрилич! Идет свободное скачивание без начисления Download ]

(Авторская песня) Владимир Высоцкий - Le Vol Arrete (Le chant du monde 1977) - 2010 [WavPack, image +.cue, lossless]

 

Создавать темы 26-Мар-2016 14:27

-Владимир Высоцкий - Le Vol Arrete (Le chant du monde 1977)-- Год | Год издания: 1977 | 2010
Страна: USSR
Жанр: Авторская песня
Продолжительность: 01:03:23-Лейбл издания: Le chant du monde
Страна-выпуска диска: Austria
Номер по каталогу: 274 762-Формат: WavPack
Битрейт аудио: Lossless
Тип рипа: image +.cue
Наличие сканов в содержимом раздачи: да
-

Трэклист


01.Les Cabans Noirs (Чёрные бушлаты)(03:34)
02.A L'Hopital (Песня о госпитале)(01:20)
03.Le Vol Arrete (Прерванный полёт)(04:51)
04.Jetez un Pont (Проложите, проложите...)(01:14)
05.Le Saut en Hauteur (Про прыгуна в высоту)(03:25)
06.Le Boxeur (Песня сентиментального боксера)(01:21)
07.L'echo Fusille (Горное эхо)(02:38)
08.Vers Les Cimes (Ну вот, исчезла дрожь в руках...)(02:54)
09.La Poursuite (Очи чёрные I - Погоня)(03:03)
10.La Demeure Etrangere (Очи чёрные II – Старый дом)(03:15)
11.Le Defunt (Весёлая покойницкая)(02:59)
12.La Voile Dechiree (Парус)(01:22)
13.L'Orniere (Чужая колея)(03:34)
14.L'Horizon (Горизонт)(03:25)
15.Cinq Cents Bornes a la Ronde (Дорожная история)(02:59)
16.Magadan (Я уехал в Магадан)(01:56)
17.Troie (Песня о Вещей Кассандре)(02:42)
18.La Chasse aux Loups (Охота на волков)(03:21)
19.La Reserve (Про Козла отпущения)(03:08)
20.L'Homme Fini (Песня конченного человека)(03:52)
21.Les Poetes (О фатальных датах и цифрах)(02:22)
22.Le Chanteur Devant le Micro (Певец у микрофона)(04:19)
-

Лог создания рипа

Exact Audio Copy V0.99 prebeta 4 from 23. January 2008
EAC extraction logfile from 26. December 2010, 1:44
Vladimir Vyssotski / Le Vol Arrete (Le chant du monde 1977)
Used drive  : Optiarc DVD RW AD-5240S   Adapter: 0  ID: 4
Read mode               : Secure
Utilize accurate stream : Yes
Defeat audio cache      : Yes
Make use of C2 pointers : No
Read offset correction                      : 48
Overread into Lead-In and Lead-Out          : No
Fill up missing offset samples with silence : Yes
Delete leading and trailing silent blocks   : No
Null samples used in CRC calculations       : Yes
Used interface                              : Installed external ASPI interface
Used output format              : User Defined Encoder
Selected bitrate                : 896 kBit/s
Quality                         : High
Add ID3 tag                     : No
Command line compressor         : G:\Program Files\Exact Audio Copy\wavpack.exe
Additional command line options : -hlm %s
TOC of the extracted CD
     Track |   Start  |  Length  | Start sector | End sector
    ---------------------------------------------------------
        1  |  0:00.33 |  3:33.22 |        33    |    16029
        2  |  3:33.55 |  1:19.58 |     16030    |    22012
        3  |  4:53.38 |  4:50.15 |     22013    |    43777
        4  |  9:43.53 |  1:13.22 |     43778    |    49274
        5  | 10:57.00 |  3:24.58 |     49275    |    64632
        6  | 14:21.58 |  1:20.65 |     64633    |    70697
        7  | 15:42.48 |  2:37.02 |     70698    |    82474
        8  | 18:19.50 |  2:53.10 |     82475    |    95459
        9  | 21:12.60 |  3:02.40 |     95460    |   109149
       10  | 24:15.25 |  3:14.55 |    109150    |   123754
       11  | 27:30.05 |  2:58.15 |    123755    |   137119
       12  | 30:28.20 |  1:21.18 |    137120    |   143212
       13  | 31:49.38 |  3:33.52 |    143213    |   159239
       14  | 35:23.15 |  3:24.28 |    159240    |   174567
       15  | 38:47.43 |  2:59.00 |    174568    |   187992
       16  | 41:46.43 |  1:55.57 |    187993    |   196674
       17  | 43:42.25 |  2:41.30 |    196675    |   208779
       18  | 46:23.55 |  3:20.48 |    208780    |   223827
       19  | 49:44.28 |  3:07.47 |    223828    |   237899
       20  | 52:52.00 |  3:51.20 |    237900    |   255244
       21  | 56:43.20 |  2:21.35 |    255245    |   265854
       22  | 59:04.55 |  4:18.45 |    265855    |   285249
Range status and errors
Selected range
     Filename E:\Lossless\Oleg39\Vladimir Vyssotski - Le Vol Arrete\Vladimir Vyssotski - Le Vol Arrete (Le chant du monde 1977).wav
     Peak level 100.0 %
     Range quality 100.0 %
     Test CRC EAC780DD
     Copy CRC EAC780DD
     Copy OK
No errors occurred
AccurateRip summary
Track  1  cannot be verified as accurate (confidence 5)  [5D009AE3], AccurateRip returned [489C455C]
Track  2  cannot be verified as accurate (confidence 5)  [A2A8A687], AccurateRip returned [DAE39F78]
Track  3  cannot be verified as accurate (confidence 5)  [2FC63626], AccurateRip returned [12B1B45B]
Track  4  cannot be verified as accurate (confidence 5)  [90CFD867], AccurateRip returned [88E6C405]
Track  5  cannot be verified as accurate (confidence 5)  [183F09B5], AccurateRip returned [8F942799]
Track  6  cannot be verified as accurate (confidence 5)  [A5CF9817], AccurateRip returned [2D163063]
Track  7  cannot be verified as accurate (confidence 5)  [51982AC3], AccurateRip returned [3F4C6331]
Track  8  cannot be verified as accurate (confidence 5)  [B6CD3C73], AccurateRip returned [8BD8367E]
Track  9  cannot be verified as accurate (confidence 5)  [53591E22], AccurateRip returned [E832BB56]
Track 10  cannot be verified as accurate (confidence 5)  [67E70796], AccurateRip returned [239E15ED]
Track 11  cannot be verified as accurate (confidence 5)  [419B3BED], AccurateRip returned [90ED3079]
Track 12  cannot be verified as accurate (confidence 5)  [6ED7FFE5], AccurateRip returned [CA31E126]
Track 13  cannot be verified as accurate (confidence 5)  [B7DB3E16], AccurateRip returned [A351B6DE]
Track 14  cannot be verified as accurate (confidence 5)  [5D9EB34D], AccurateRip returned [6D24D667]
Track 15  cannot be verified as accurate (confidence 5)  [6EC66E7F], AccurateRip returned [25A9AC31]
Track 16  cannot be verified as accurate (confidence 5)  [3BCAD90B], AccurateRip returned [3E863596]
Track 17  cannot be verified as accurate (confidence 5)  [D7496321], AccurateRip returned [E1217E32]
Track 18  cannot be verified as accurate (confidence 5)  [94788AE1], AccurateRip returned [532A8341]
Track 19  cannot be verified as accurate (confidence 5)  [E879AA6F], AccurateRip returned [AB362C52]
Track 20  cannot be verified as accurate (confidence 5)  [549E14D6], AccurateRip returned [F411BB92]
Track 21  cannot be verified as accurate (confidence 5)  [61B6AC29], AccurateRip returned [CB2DC165]
Track 22  cannot be verified as accurate (confidence 5)  [AA3D57ED], AccurateRip returned [E34C5B10]
No tracks could be verified as accurate
You may have a different pressing from the one(s) in the database
End of status report

Индексная карта (non-compilant .cue)

REM GENRE "Bard"
REM DATE 2010
REM DISCID 3E0EDB16
REM COMMENT "ExactAudioCopy v0.99pb4"
PERFORMER "Vladimir Vyssotski"
TITLE "Le Vol Arrete (Le chant du monde 1977)"
FILE "Vladimir Vyssotski - 2010 - Le Vol Arrete (Le chant du monde 1977) [NL+].wv" WAVE
  TRACK 01 AUDIO
    TITLE "Les Cabans Noirs (Чёрные бушлаты)"
    PERFORMER "Vladimir Vyssotski"
    FLAGS PRE
    INDEX 00 00:00:00
    INDEX 01 00:00:33
  TRACK 02 AUDIO
    TITLE "A L'Hopital (Песня о госпитале)"
    PERFORMER "Vladimir Vyssotski"
    FLAGS PRE
    INDEX 00 03:30:63
    INDEX 01 03:33:55
  TRACK 03 AUDIO
    TITLE "Le Vol Arrete (Прерванный полёт)"
    PERFORMER "Vladimir Vyssotski"
    FLAGS PRE
    INDEX 00 04:52:08
    INDEX 01 04:53:38
  TRACK 04 AUDIO
    TITLE "Jetez un Pont (Проложите, проложите...)"
    PERFORMER "Vladimir Vyssotski"
    FLAGS PRE
    INDEX 00 09:41:08
    INDEX 01 09:43:53
  TRACK 05 AUDIO
    TITLE "Le Saut en Hauteur (Про прыгуна в высоту)"
    PERFORMER "Vladimir Vyssotski"
    FLAGS PRE
    INDEX 00 10:54:65
    INDEX 01 10:57:00
  TRACK 06 AUDIO
    TITLE "Le Boxeur (Песня сентиментального боксера)"
    PERFORMER "Vladimir Vyssotski"
    FLAGS PRE
    INDEX 00 14:20:00
    INDEX 01 14:21:58
  TRACK 07 AUDIO
    TITLE "L'echo Fusille (Горное эхо)"
    PERFORMER "Vladimir Vyssotski"
    FLAGS PRE
    INDEX 00 15:37:50
    INDEX 01 15:42:48
  TRACK 08 AUDIO
    TITLE "Vers Les Cimes (Ну вот, исчезла дрожь в руках...)"
    PERFORMER "Vladimir Vyssotski"
    FLAGS PRE
    INDEX 00 18:18:48
    INDEX 01 18:19:50
  TRACK 09 AUDIO
    TITLE "La Poursuite (Очи чёрные I - Погоня)"
    PERFORMER "Vladimir Vyssotski"
    FLAGS PRE
    INDEX 00 21:09:15
    INDEX 01 21:12:60
  TRACK 10 AUDIO
    TITLE "La Demeure Etrangere (Очи чёрные II – Старый дом)"
    PERFORMER "Vladimir Vyssotski"
    FLAGS PRE
    INDEX 00 24:13:33
    INDEX 01 24:15:25
  TRACK 11 AUDIO
    TITLE "Le Defunt (Весёлая покойницкая)"
    PERFORMER "Vladimir Vyssotski"
    FLAGS PRE
    INDEX 00 27:28:28
    INDEX 01 27:30:05
  TRACK 12 AUDIO
    TITLE "La Voile Dechiree (Парус)"
    PERFORMER "Vladimir Vyssotski"
    FLAGS PRE
    INDEX 00 30:25:55
    INDEX 01 30:28:20
  TRACK 13 AUDIO
    TITLE "L'Orniere (Чужая колея)"
    PERFORMER "Vladimir Vyssotski"
    FLAGS PRE
    INDEX 00 31:46:05
    INDEX 01 31:49:38
  TRACK 14 AUDIO
    TITLE "L'Horizon (Горизонт)"
    PERFORMER "Vladimir Vyssotski"
    FLAGS PRE
    INDEX 00 35:21:73
    INDEX 01 35:23:15
  TRACK 15 AUDIO
    TITLE "Cinq Cents Bornes a la Ronde (Дорожная история)"
    PERFORMER "Vladimir Vyssotski"
    FLAGS PRE
    INDEX 00 38:44:40
    INDEX 01 38:47:43
  TRACK 16 AUDIO
    TITLE "Magadan (Я уехал в Магадан)"
    PERFORMER "Vladimir Vyssotski"
    FLAGS PRE
    INDEX 00 41:45:35
    INDEX 01 41:46:43
  TRACK 17 AUDIO
    TITLE "Troie (Песня о Вещей Кассандре)"
    PERFORMER "Vladimir Vyssotski"
    FLAGS PRE
    INDEX 00 43:40:63
    INDEX 01 43:42:25
  TRACK 18 AUDIO
    TITLE "La Chasse aux Loups (Охота на волков)"
    PERFORMER "Vladimir Vyssotski"
    FLAGS PRE
    INDEX 00 46:17:53
    INDEX 01 46:23:55
  TRACK 19 AUDIO
    TITLE "La Reserve (Про Козла отпущения)"
    PERFORMER "Vladimir Vyssotski"
    FLAGS PRE
    INDEX 00 49:42:20
    INDEX 01 49:44:28
  TRACK 20 AUDIO
    TITLE "L'Homme Fini (Песня конченного человека)"
    PERFORMER "Vladimir Vyssotski"
    FLAGS PRE
    INDEX 00 52:50:63
    INDEX 01 52:52:00
  TRACK 21 AUDIO
    TITLE "Les Poetes (О фатальных датах и цифрах)"
    PERFORMER "Vladimir Vyssotski"
    FLAGS PRE
    INDEX 00 56:42:15
    INDEX 01 56:43:20
  TRACK 22 AUDIO
    TITLE "Le Chanteur Devant le Micro (Певец у микрофона)"
    PERFORMER "Vladimir Vyssotski"
    FLAGS PRE
    INDEX 00 59:02:53
    INDEX 01 59:04:55
-- -Оформление: sergej644-
Яндекс.Метрика
Рейтинг@Mail.ru