Профессионал (Серии 1—16 из 16) (Алан Дзоциев) [2014/16, боевик, HDTVRip]

 

Создавать темы 25-Мар-2016 07:51

--Профессионал--
  • Год выпуска: 2014/16
  • Страна: Россия / «Форвард-фильм», «Панорама»
  • Жанр: боевик
  • Продолжительность: 16 х ~00:45:00
  • Перевод: Не требуется-
  • Режиссёр: Алан Дзоциев-
  • В ролях: Алексей Лобанов, Константин Стрельников, Игорь Лагутин, Евгения Игумнова, Сергей Юшкевич, Андрей Горбачев, Юрий Батурин, Анатолий Лобоцкий, Мария Решавская, Владимир Артемов...-
  • Вновь оказавшись на родной земле после многолетнего заключения за границей, разведчик Андрей Зубов стремится восстановить справедливость. Его группа оказалась жертвой чьей-то хитроумной интриги, в результате которой все его подчинённые погибли во время взрыва в Джакарте, а сам он был обвинён в торговле наркотиками и приговорён к смерти. В ожидании исполнения приговора Зубов четырнадцать лет провёл за решёткой, а тем временем, люди, виновные в его провале, получали новые чины и звания, а жена Зубова Катя погибла при очень странных обстоятельствах... Вырвавшись на волю, Зубов встречает в России очень холодный приём. Предателя Родины, каковым Андрея считают после провала его миссии, решено ликвидировать прямо в аэропорту. Однако настоящий профессионал и мастер своего дела, Зубов не только избегает смерти, но и сразу же выходит на след того, кто может рассказать ему всю правду о событиях четырнадцатилетней давности. Андрей начинает борьбу с оборотнями в погонах, на стороне которых в силу трагического стечения обстоятельств находится единственный близкий ему человек...-
  • Премьера в России: 14 марта 2016 (НТВ)--
  • --
  • Качество видео: HDTVRip
  • Формат видео: AVI
  • Видео кодек: XviD
  • Аудио кодек: MP3
  • Видео: 624x352 (1.78:1), 25.000 fps, XviD MPEG-4, ~750 kbps avg, 0.135 bit/pixel
  • Аудио: 48.0 kHz, MPEG Audio Layer 3, 2 ch, ~128.00 kbps avg
  • Субтитры: нет
--

Media Info

General
Complete name : W:\O.S.A.\Торренты\Завершенные торренты\Professional.2014.XviD.HDTVRip.by.GeneralFilm\Serija.01.avi
Format : AVI
Format/Info : Audio Video Interleave
File size : 278 MiB
Duration : 44mn 12s
Overall bit rate : 880 Kbps
Writing application : VirtualDubMod 1.5.10.3 | www.virtualdub-fr.org || (build 2550/release)
Writing library : VirtualDubMod build 2550/release
Video
ID : 0
Format : MPEG-4 Visual
Format profile : Advanced [email protected]
Format settings, BVOP : 1
Format settings, QPel : No
Format settings, GMC : No warppoints
Format settings, Matrix : Custom
Codec ID : XVID
Codec ID/Hint : XviD
Duration : 44mn 12s
Bit rate : 742 Kbps
Width : 624 pixels
Height : 352 pixels
Display aspect ratio : 16:9
Frame rate : 25.000 fps
Color space : YUV
Chroma subsampling : 4:2:0
Bit depth : 8 bits
Scan type : Progressive
Compression mode : Lossy
Bits/(Pixel*Frame) : 0.135
Stream size : 235 MiB (84%)
Writing library : XviD 73
Audio
ID : 1
Format : MPEG Audio
Format version : Version 1
Format profile : Layer 3
Codec ID : 55
Codec ID/Hint : MP3
Duration : 44mn 12s
Bit rate mode : Constant
Bit rate : 128 Kbps
Channel(s) : 2 channels
Sampling rate : 48.0 KHz
Compression mode : Lossy
Stream size : 40.5 MiB (15%)
Alignment : Aligned on interleaves
Interleave, duration : 40 ms (1.00 video frame)
Interleave, preload duration : 504 ms
Writing library : LAME3.99r
Encoding settings : -m s -V 4 -q 0 -lowpass 17 -b 128
---- --
Яндекс.Метрика
Рейтинг@Mail.ru