В пустыне смерти / Into the Badlands (Сезон 1; Серии 1—6 из 6) (Дэвид Добкин, Гай Ферленд) [2015, боевик, приключения, драма, WEB-DLRip 720p] MVO

 

Создавать темы 24-Мар-2016 11:49

--В пустыне смерти / Into the Badlands--
  • Год выпуска: 2015
  • Страна: США
  • Жанр: боевик, приключения, драма
  • Продолжительность: 6 х ~00:44:00
  • Перевод: Профессиональный (многоголосый закадровый) - LostFilm-
  • Режиссёр: Дэвид Добкин, Гай Ферленд-
  • В ролях: Дэниэл Ву, Орла Брэйди, Сара Болджер, Арамис Найт, Эмили Бичем, Оливер Старк, Мадлен Манток, Элли Иоаннидес, Мартон Чокаш, Майкл Сил, Стивен Лэнг, Эллен Холлман, Тересса Лиэн, Джерри Таббс, Хайлен Бойд, Лэнс Хенриксен, Джастин Лебрун...-
  • Приключенческий боевик о двух друзьях. В пустыне смерти, какие испытания предстоит пройти главным героям на пути просвещения. Ради обретения высшей мудрости мастер боевых искусств Санни и его юный напарник решают пройти через неизведанные земли. Они знают, что там их будут встречать враждебно, но ради высшей цели главные герои готовы вынести всё. В основу сюжета сериала был положен китайский роман под названием «Путешествие на Запад». Во время путешествия Санни покажет в полной мере своё мастерство, а его юный друг сможет многому научиться, и владению собственным телом, и контролю над собственным духом.-
  • Премьера в мире: 15 ноября 2015; Премьера в России: 16 ноября 2015--
  • --
  • Качество видео: WEB-DLRip 720p
  • Формат видео: MP4
  • Видео кодек: H.264
  • Аудио кодек: AAC
  • Видео: 1280x718 (1.78:1), 23.976 fps, MPEG-4 AVC, ~4000 kbps avg, 0.182 bit/pixel
  • Аудио: 48.0 kHz, AAC_LC, 2/0 (L,R) ch, ~288.00 kbps avg
  • Субтитры: нет
--

Media Info

General
Complete name : W:\O.S.A.\Торренты\Завершенные торренты\В пустыне смерти\Into.the.Badlands.S01E01.720p.WEB.rus.LostFilm.TV.mp4
Format : MPEG-4
Format profile : Base Media
Codec ID : isom
File size : 1.28 GiB
Duration : 44mn 9s
Overall bit rate : 4 166 Kbps
Movie name : Форт
Album : В пустыне смерти, Сезон 1
Album/Performer : В пустыне смерти
Part/Position : 1
Part/Total : 0
Track name/Position : 1
Track name/Total : 0
Performer : В пустыне смерти
Genre : Action, Adventure
Recorded date : 2015
Encoded date : UTC 2015-12-24 13:42:07
Tagged date : UTC 2015-12-24 13:42:07
Writing application : LostCoder
Copyright : LostFilm.TV (c)
Cover : Yes
Comment : Время действия шоу — далекое будущее, в котором общество вернулось к феодальному строю. Прежняя цивилизация оказалась полностью разрушена, и теперь всем заправляют семь баронов, конкурирующих между собой хозяев так называемой Пустыни смерти. Каждый из них
tven : 101
tvsn : 1
tves : 1
stik : 10
rati : (Binary)
Video
ID : 1
Format : AVC
Format/Info : Advanced Video Codec
Format profile : [email protected]
Format settings, CABAC : No
Format settings, ReFrames : 4 frames
Format settings, GOP : M=3, N=6
Codec ID : avc1
Codec ID/Info : Advanced Video Coding
Duration : 44mn 9s
Bit rate mode : Variable
Bit rate : 4 000 Kbps
Maximum bit rate : 13.7 Mbps
Width : 1 280 pixels
Height : 718 pixels
Display aspect ratio : 16:9
Frame rate mode : Variable
Frame rate : 23.976 fps
Minimum frame rate : 23.974 fps
Maximum frame rate : 23.981 fps
Color space : YUV
Chroma subsampling : 4:2:0
Bit depth : 8 bits
Scan type : Progressive
Bits/(Pixel*Frame) : 0.182
Stream size : 1.20 GiB (93%)
Writing library : x264 core 112 r1834 a51816a
Encoding settings : cabac=0 / ref=3 / deblock=1:0:0 / analyse=0x1:0x111 / me=hex / subme=7 / psy=1 / psy_rd=1.00:0.00 / mixed_ref=1 / me_range=16 / chroma_me=1 / trellis=1 / 8x8dct=0 / cqm=0 / deadzone=21,11 / fast_pskip=1 / chroma_qp_offset=-2 / threads=12 / sliced_threads=0 / nr=0 / decimate=1 / interlaced=0 / constrained_intra=0 / bframes=3 / b_pyramid=2 / b_adapt=1 / b_bias=0 / direct=1 / weightb=1 / open_gop=0 / weightp=2 / keyint=250 / keyint_min=25 / scenecut=40 / intra_refresh=0 / rc_lookahead=40 / rc=abr / mbtree=1 / bitrate=4000 / ratetol=1.0 / qcomp=0.60 / qpmin=0 / qpmax=51 / qpstep=4 / vbv_maxrate=5000 / vbv_bufsize=2000 / ip_ratio=1.40 / aq=1:1.00 / nal_hrd=none
Language : English
Tagged date : UTC 2015-12-24 13:42:55
Audio
ID : 2
Format : AAC
Format/Info : Advanced Audio Codec
Format profile : LC
Codec ID : 40
Duration : 44mn 9s
Bit rate mode : Variable
Bit rate : 288 Kbps
Maximum bit rate : 390 Kbps
Channel(s) : 2 channels
Channel positions : Front: L R
Sampling rate : 48.0 KHz
Compression mode : Lossy
Stream size : 89.8 MiB (7%)
Encoded date : UTC 2015-12-24 13:42:53
Tagged date : UTC 2015-12-24 13:42:55
---- --
Яндекс.Метрика
Рейтинг@Mail.ru