(Шансон) Александр Новиков - Золотое Серебро - 2015, FLAC (image+.cue), lossless

 

Создавать темы 22-Мар-2016 20:57

-Александр Новиков - Золотое Серебро- Жанр: Шансон
Носитель: CD
Страна-производитель диска (релиза): Россия
Год издания: 2015
Издатель (лейбл): Мистерия Звука
Номер по каталогу: CD-M+353-2
Страна исполнителя (группы): Россия
Аудиокодек: FLAC (*.flac)
Тип рипа: image+.cue
Битрейт аудио: lossless
Продолжительность: 1:57:38 (1:01:01+56:37)
Источник (релизер): CD
Наличие сканов в содержимом раздачи: нет
Треклист:
CD 1
1. Помнишь,девочка?
2. 20 лет
3. А в Париже
4. Луали
5. Шансонье
6. Патефон
7. Улю-лю
8. Белый голубь
9. Та женщина была
10. На прощанье
11. А музыка одна
12. Уличная красотка
13. Шлюха
14. Катилась по асфальту
15. Колокольня

CD 2

1. Шансоньетка
2. Такси
3. Горожанка
4. Пароходишко
5. Катька
6. Побрякушка
7. Голубок
8. Это не лето
9. Медсестричка
10. Улица Восточная
11. Вы уезжаете
12. Женщина ушла
13. 5 минут ходьбы
14. Дурман
15. С красавицей в обнимку
Сборник старых песен в новом звучании.

Лог создания рипа

CD 1

Exact Audio Copy V1.0 beta 3 from 29. August 2011
EAC extraction logfile from 16. November 2015, 1:07
Александр Новиков / Золотое Серебро
Used drive  : PIONEER BD-RW   BDR-208D   Adapter: 0  ID: 0
Read mode               : Secure
Utilize accurate stream : Yes
Defeat audio cache      : Yes
Make use of C2 pointers : No
Read offset correction                      : 667
Overread into Lead-In and Lead-Out          : Yes
Fill up missing offset samples with silence : Yes
Delete leading and trailing silent blocks   : No
Null samples used in CRC calculations       : Yes
Used interface                              : Native Win32 interface for Win NT & 2000
Used output format              : User Defined Encoder
Selected bitrate                : 1024 kBit/s
Quality                         : High
Add ID3 tag                     : No
Command line compressor         : C:\Program Files\Exact Audio Copy\Flac\flac.exe
Additional command line options : -8 -V -T "ARTIST=%artist%" -T "TITLE=%title%" -T "ALBUM=%albumtitle%" -T "DATE=%year%" -T "TRACKNUMBER=%tracknr%" -T "GENRE=%genre%" -T "PERFORMER=%albuminterpret%" -T "COMPOSER=%composer%" %haslyrics%--tag-from-file=LYRICS="%lyricsfile%"%haslyrics% -T "ALBUMARTIST=%albumartist%" -T "DISCNUMBER=%cdnumber%" -T "TOTALDISCS=%totalcds%" -T "TOTALTRACKS=%numtracks%" -T "COMMENT=%comment%" %source% -o %dest%
TOC of the extracted CD
     Track |   Start  |  Length  | Start sector | End sector
    ---------------------------------------------------------
        1  |  0:00.00 |  3:53.17 |         0    |    17491
        2  |  3:53.17 |  4:13.00 |     17492    |    36466
        3  |  8:06.17 |  4:49.27 |     36467    |    58168
        4  | 12:55.44 |  3:39.59 |     58169    |    74652
        5  | 16:35.28 |  3:45.03 |     74653    |    91530
        6  | 20:20.31 |  4:30.36 |     91531    |   111816
        7  | 24:50.67 |  4:17.03 |    111817    |   131094
        8  | 29:07.70 |  3:49.71 |    131095    |   148340
        9  | 32:57.66 |  4:33.14 |    148341    |   168829
       10  | 37:31.05 |  4:13.05 |    168830    |   187809
       11  | 41:44.10 |  3:16.63 |    187810    |   202572
       12  | 45:00.73 |  3:38.50 |    202573    |   218972
       13  | 48:39.48 |  3:54.24 |    218973    |   236546
       14  | 52:33.72 |  5:04.03 |    236547    |   259349
       15  | 57:38.00 |  3:23.47 |    259350    |   274621
Range status and errors
Selected range
     Filename C:\Александр Новиков - Золотое Серебро (2015) [FLAC]\CD 1\Александр Новиков - Золотое Серебро.wav
     Peak level 97.7 %
     Extraction speed 7.7 X
     Range quality 99.9 %
     Test CRC 4C997046
     Copy CRC 4C997046
     Copy OK
No errors occurred
AccurateRip summary
Track  1  not present in database
Track  2  not present in database
Track  3  not present in database
Track  4  not present in database
Track  5  not present in database
Track  6  not present in database
Track  7  not present in database
Track  8  not present in database
Track  9  not present in database
Track 10  not present in database
Track 11  not present in database
Track 12  not present in database
Track 13  not present in database
Track 14  not present in database
Track 15  not present in database
None of the tracks are present in the AccurateRip database
End of status report
---- CUETools DB Plugin V2.1.3
[CTDB TOCID: uC82CWZupLAMKk_.duNsjtVsPgw-] found, Submit result: already submitted
[58e73f43] (1/1) Accurately ripped
==== Log checksum E3285BAC1854030E5BD7379511ACD7E211C83D08AD01A2E0BF6817D14F98E56F ====

CD 2

Exact Audio Copy V1.0 beta 3 from 29. August 2011
EAC extraction logfile from 16. November 2015, 10:25
Александр Новиков / Золотое Серебро
Used drive  : PIONEER BD-RW   BDR-208D   Adapter: 0  ID: 0
Read mode               : Secure
Utilize accurate stream : Yes
Defeat audio cache      : Yes
Make use of C2 pointers : No
Read offset correction                      : 667
Overread into Lead-In and Lead-Out          : Yes
Fill up missing offset samples with silence : Yes
Delete leading and trailing silent blocks   : No
Null samples used in CRC calculations       : Yes
Used interface                              : Native Win32 interface for Win NT & 2000
Used output format              : User Defined Encoder
Selected bitrate                : 1024 kBit/s
Quality                         : High
Add ID3 tag                     : No
Command line compressor         : C:\Program Files\Exact Audio Copy\Flac\flac.exe
Additional command line options : -8 -V -T "ARTIST=%artist%" -T "TITLE=%title%" -T "ALBUM=%albumtitle%" -T "DATE=%year%" -T "TRACKNUMBER=%tracknr%" -T "GENRE=%genre%" -T "PERFORMER=%albuminterpret%" -T "COMPOSER=%composer%" %haslyrics%--tag-from-file=LYRICS="%lyricsfile%"%haslyrics% -T "ALBUMARTIST=%albumartist%" -T "DISCNUMBER=%cdnumber%" -T "TOTALDISCS=%totalcds%" -T "TOTALTRACKS=%numtracks%" -T "COMMENT=%comment%" %source% -o %dest%
TOC of the extracted CD
     Track |   Start  |  Length  | Start sector | End sector
    ---------------------------------------------------------
        1  |  0:00.00 |  4:29.63 |         0    |    20237
        2  |  4:29.63 |  4:11.61 |     20238    |    39123
        3  |  8:41.49 |  4:10.21 |     39124    |    57894
        4  | 12:51.70 |  3:33.67 |     57895    |    73936
        5  | 16:25.62 |  3:17.49 |     73937    |    88760
        6  | 19:43.36 |  2:52.68 |     88761    |   101728
        7  | 22:36.29 |  3:16.29 |    101729    |   116457
        8  | 25:52.58 |  4:35.59 |    116458    |   137141
        9  | 30:28.42 |  3:22.04 |    137142    |   152295
       10  | 33:50.46 |  4:25.51 |    152296    |   172221
       11  | 38:16.22 |  4:01.17 |    172222    |   190313
       12  | 42:17.39 |  4:37.49 |    190314    |   211137
       13  | 46:55.13 |  3:35.35 |    211138    |   227297
       14  | 50:30.48 |  3:32.09 |    227298    |   243206
       15  | 54:02.57 |  2:34.63 |    243207    |   254819
Range status and errors
Selected range
     Filename C:\Александр Новиков - Золотое Серебро (2015) [FLAC]\CD 2\Александр Новиков - Золотое Серебро.wav
     Peak level 97.7 %
     Extraction speed 7.5 X
     Range quality 100.0 %
     Test CRC FE279A04
     Copy CRC FE279A04
     Copy OK
No errors occurred
AccurateRip summary
Track  1  not present in database
Track  2  not present in database
Track  3  not present in database
Track  4  not present in database
Track  5  not present in database
Track  6  not present in database
Track  7  not present in database
Track  8  not present in database
Track  9  not present in database
Track 10  not present in database
Track 11  not present in database
Track 12  not present in database
Track 13  not present in database
Track 14  not present in database
Track 15  not present in database
None of the tracks are present in the AccurateRip database
End of status report
---- CUETools DB Plugin V2.1.3
[CTDB TOCID: EVR3XPpKtFwK91TYT2xPJUJveGY-] disk not present in database, Submit result: EVR3XPpKtFwK91TYT2xPJUJveGY- has been uploaded
==== Log checksum 2C8C8AA18A3DEF58766C1116A345917C8DD6554235D08D648C677A992EAEAD38 ====
Яндекс.Метрика
Рейтинг@Mail.ru