Выживший / The Revenant (2015) WEB-DL [H.264/1080p-LQ]

 

Создавать темы 21-Мар-2016 22:25

- Выживший / The Revenant (2015) WEB-DL [H.264/1080p-LQ]- Производство: США, Anonymous Content, Appian Way, New Regency Pictures, RatPac Entertainment, Soho VFX
Жанр: Триллер, Драма, Приключения, Вестерн
Режиссер: Алехандро Гонсалес Иньяррит
Продюсер: Стив Голин, Дэвид Кантер, Арнон Милчен
Актеры: Леонардо ДиКаприо, Том Харди, Донал Глисон, Уилл Поултер, Пол Андерсон, Лукас Хаас, Брэд Картер, Кристоффер Йонер, Брендан Флетчер, Хавьер Ботет, Кори Грим, Роберт Молони, Винсент Леклерк, Джошуа Бёрдж, МакКалеб Барнетт, Рэй Чейз, Тимоти Лайл, Эдриан Макморран, Дэйв Бурчилл, Майкл Виллар
Описание:
Охотник Хью Гласс серьезно ранен на неизведанных просторах американского Дикого Запада. Товарищ Хью по отряду покорителей новых земель Джон Фицжеральд предательски оставляет его умирать в одиночестве. Теперь у Гласса осталось только одно оружие — его сила воли. Он готов бросить вызов первобытной природе, суровой зиме и враждебным племенам индейцев, только чтобы выжить и отомстить Фицжеральду.

Возраст: 18+ (зрителям, достигшим 18 лет. запрещено для детей)
Рейтинг MPAA: R (лицам до 17 лет обязательно присутствие взрослого)
Дата мировой премьеры: 16 декабря 2015
Дата премьеры в России: 7 января 2016, «Двадцатый Век Фокс СНГ»
-Продолжительность: 02:36:55
Качество видео: WEB-DL
Перевод: Дублированный (iTunes)
Вид субтитров: Вшитые отключаемые
Язык субтитров: Русский (Forced, Full), Украинский (Forced, Full), Английский (Forced, Full)
Примечание: Отсутствует любого рода реклама!-Видео: AVC/H.264, 1916x792 (2.40:1), 4391 kb/s, 23.976 fps
Аудио »1: 48 kHz, AC3 Dolby Digital, 3/2 (L,C,R,l,r) + LFE ch, ~384 kbps (Русский)
Аудио »2: 48 kHz, AC3 Dolby Digital, 2/0 (L,R) ch, ~192 kbps (Украинский/Дубляж)
Аудио »1: 48 kHz, AC3 Dolby Digital, 2/0 (L,R) ch, ~192 kbps (Английский/Оригинал)

MI

Общее
Уникальный идентификатор                 : 219772129053620679397887122095867146324 (0xA556928AAE710101B46D4944D903B054)
Полное имя                               : D:\Релизы\Выживший.2015.WEB-DL.[1080p].nnm-club.mkv
Формат                                   : Matroska
Версия формата                           : Version 2
Размер файла                             : 5,77 Гбайт
Продолжительность                        : 2 ч. 36 м.
Общий поток                              : 5264 Кбит/сек
Название фильма                          : Выживший.2015.WEB-DL.[1080p].nnm-club
Дата кодирования                         : UTC 2016-03-21 19:51:08
Программа кодирования                    : mkvmerge v8.3.0 ("Over the Horizon") 64bit
Библиотека кодирования                   : libebml v1.3.1 + libmatroska v1.4.2
Видео
Идентификатор                            : 1
Формат                                   : AVC
Формат/Информация                        : Advanced Video Codec
Профиль формата                          : [email protected]
Параметр CABAC формата                   : Да
Параметр ReFrames формата                : 5 кадров
Идентификатор кодека                     : V_MPEG4/ISO/AVC
Продолжительность                        : 2 ч. 36 м.
Битрейт                                  : 4391 Кбит/сек
Ширина                                   : 1916 пикселей
Высота                                   : 792 пикселя
Соотношение сторон                       : 2,40:1
Режим частоты кадров                     : Постоянный
Частота кадров                           : 23,976 кадра/сек
Цветовое пространство                    : YUV
Субдискретизация насыщенности            : 4:2:0
Битовая глубина                          : 8 бит
Тип развёртки                            : Прогрессивная
Бит/(Пиксели*Кадры)                      : 0.121
Размер потока                            : 4,81 Гбайт (83%)
Заголовок                                : Выживший.2015.WEB-DL.[1080p].nnm-club
Язык                                     : English
Default                                  : Да
Forced                                   : Нет
Цветовой диапазон                        : Limited
Основные цвета                           : BT.709
Характеристики трансфера                 : BT.709
Коэффициенты матрицы                     : BT.709
Аудио #1
Идентификатор                            : 2
Формат                                   : AC-3
Формат/Информация                        : Audio Coding 3
Расширение режима                        : CM (complete main)
Параметр Endianness формата              : Big
Идентификатор кодека                     : A_AC3
Продолжительность                        : 2 ч. 36 м.
Вид битрейта                             : Постоянный
Битрейт                                  : 384 Кбит/сек
Каналы                                   : 6 каналов
Расположение каналов                     : Front: L C R, Side: L R, LFE
Частота                                  : 48,0 КГц
Метод сжатия                             : С потерями
Размер потока                            : 431 Мбайт (7%)
Заголовок                                : iTunes
Язык                                     : Russian
Default                                  : Да
Forced                                   : Да
Аудио #2
Идентификатор                            : 3
Формат                                   : AC-3
Формат/Информация                        : Audio Coding 3
Расширение режима                        : CM (complete main)
Параметр Endianness формата              : Big
Идентификатор кодека                     : A_AC3
Продолжительность                        : 2 ч. 36 м.
Вид битрейта                             : Постоянный
Битрейт                                  : 192 Кбит/сек
Каналы                                   : 2 канала
Расположение каналов                     : Front: L R
Частота                                  : 48,0 КГц
Метод сжатия                             : С потерями
Размер потока                            : 215 Мбайт (4%)
Заголовок                                : iTunes
Язык                                     : Ukrainian
Default                                  : Нет
Forced                                   : Нет
Аудио #3
Идентификатор                            : 4
Формат                                   : AC-3
Формат/Информация                        : Audio Coding 3
Расширение режима                        : CM (complete main)
Параметр Endianness формата              : Big
Идентификатор кодека                     : A_AC3
Продолжительность                        : 2 ч. 36 м.
Вид битрейта                             : Постоянный
Битрейт                                  : 192 Кбит/сек
Каналы                                   : 2 канала
Расположение каналов                     : Front: L R
Частота                                  : 48,0 КГц
Метод сжатия                             : С потерями
Размер потока                            : 215 Мбайт (4%)
Заголовок                                : Original
Язык                                     : English
Default                                  : Нет
Forced                                   : Нет
Текст #1
Идентификатор                            : 5
Формат                                   : UTF-8
Идентификатор кодека                     : S_TEXT/UTF8
Идентификатор кодека/Информация          : UTF-8 Plain Text
Заголовок                                : Forced
Язык                                     : Russian
Default                                  : Да
Forced                                   : Нет
Текст #2
Идентификатор                            : 6
Формат                                   : UTF-8
Идентификатор кодека                     : S_TEXT/UTF8
Идентификатор кодека/Информация          : UTF-8 Plain Text
Заголовок                                : Full
Язык                                     : Russian
Default                                  : Нет
Forced                                   : Нет
Текст #3
Идентификатор                            : 7
Формат                                   : UTF-8
Идентификатор кодека                     : S_TEXT/UTF8
Идентификатор кодека/Информация          : UTF-8 Plain Text
Заголовок                                : Forced
Язык                                     : Ukrainian
Default                                  : Нет
Forced                                   : Нет
Текст #4
Идентификатор                            : 8
Формат                                   : UTF-8
Идентификатор кодека                     : S_TEXT/UTF8
Идентификатор кодека/Информация          : UTF-8 Plain Text
Заголовок                                : Full
Язык                                     : Ukrainian
Default                                  : Нет
Forced                                   : Нет
Текст #5
Идентификатор                            : 9
Формат                                   : UTF-8
Идентификатор кодека                     : S_TEXT/UTF8
Идентификатор кодека/Информация          : UTF-8 Plain Text
Заголовок                                : Forced
Язык                                     : English
Default                                  : Нет
Forced                                   : Нет
Текст #6
Идентификатор                            : 10
Формат                                   : UTF-8
Идентификатор кодека                     : S_TEXT/UTF8
Идентификатор кодека/Информация          : UTF-8 Plain Text
Заголовок                                : Full
Язык                                     : English
Default                                  : Нет
Forced                                   : Нет
Меню
00:00:00.000                             : en:1
00:05:04.846                             : en:2
00:07:58.311                             : en:3
00:13:18.964                             : en:4
00:21:10.685                             : en:5
00:28:21.657                             : en:6
00:37:07.766                             : en:7
00:44:00.345                             : en:8
00:48:14.974                             : en:9
00:51:42.264                             : en:10
00:56:51.031                             : en:11
00:59:50.752                             : en:12
01:03:31.764                             : en:13
01:11:52.431                             : en:14
01:16:36.131                             : en:15
01:21:22.375                             : en:16
01:28:31.137                             : en:17
01:37:29.967                             : en:18
01:48:44.641                             : en:19
01:53:08.780                             : en:20
01:59:05.928                             : en:21
02:02:56.700                             : en:22
02:15:45.260                             : en:23
02:22:51.019                             : en:24
Скриншоты:Время раздачи: 24/7 (до появления первых 3-5 скачавших)
Яндекс.Метрика
Рейтинг@Mail.ru