Выживший / The Revenant (2015) WEB-DLRip

 

Создавать темы 21-Мар-2016 22:22

- Выживший / The Revenant (2015) WEB-DLRip- Производство: США / New Regency Pictures, Anonymous Content, Appian Way
Жанр: Триллер, Драма, Приключения, Вестерн
Режиссер: Алехандро Гонсалес Иньярриту
Продюсер: Стив Голин, Алехандро Гонсалес Иньярриту, Дэвид Кантер
Актеры: Леонардо ДиКаприо, Том Харди, Донал Глисон, Уилл Поултер, Пол Андерсон, Лукас Хаас, Брэд Картер, Кристоффер Йонер, Брендан Флетчер
Описание:
Охотник Хью Гласс серьезно ранен на неизведанных просторах американского Дикого Запада. Товарищ Хью по отряду покорителей новых земель Джон Фицжеральд предательски оставляет его умирать в одиночестве. Теперь у Гласса осталось только одно оружие — его сила воли. Он готов бросить вызов первобытной природе, суровой зиме и враждебным племенам индейцев, только чтобы выжить и отомстить Фицжеральду.-Возраст: 18+ (зрителям, достигшим 18 лет. запрещено для детей)
Рейтинг MPAA: R (лицам до 17 лет обязательно присутствие взрослого)
Дата мировой премьеры: 16 декабря 2015
Дата премьеры в России: 7 января 2016, «Двадцатый Век Фокс СНГ»

Продолжительность: 02:36:55
Качество видео: WEB-DLRip
Перевод: Дублированный (iTunes)
Субтитры: Отсутствуют
Видео: Xvid, 720x304, ~1113 kb/s
Аудио: AC-3, 2 ch, 128 kb/s

Mediainfo:

Общее
Полное имя                               : Выживший (2O15) WEB-DLRip.avi
Формат                                   : AVI
Формат/Информация                        : Audio Video Interleave
Размер файла                             : 1,37 Гбайт
Продолжительность                        : 2 ч. 36 м.
Общий поток                              : 1250 Кбит/сек
Программа кодирования                    : VirtualDubMod 1.5.10.2 (build 2540/release)
Библиотека кодирования                   : VirtualDubMod build 2540/release
Видео
Идентификатор                            : 0
Формат                                   : MPEG-4 Visual
Профиль формата                          : Advanced [email protected]
Параметр BVOP формата                    : 2
Параметр QPel формата                    : Нет
Параметр GMC формата                     : Без точки перехода
Параметр матрицы формата                 : Default (MPEG)
Идентификатор кодека                     : XVID
Идентификатор кодека/Подсказка           : XviD
Продолжительность                        : 2 ч. 36 м.
Битрейт                                  : 1113 Кбит/сек
Ширина                                   : 720 пикселей
Высота                                   : 304 пикселя
Соотношение сторон                       : 2,35:1
Частота кадров                           : 23,976 (24000/1001) кадра/сек
Цветовое пространство                    : YUV
Субдискретизация насыщенности            : 4:2:0
Битовая глубина                          : 8 бит
Тип развёртки                            : Прогрессивная
Метод сжатия                             : С потерями
Бит/(Пиксели*Кадры)                      : 0.212
Размер потока                            : 1,22 Гбайт (89%)
Библиотека кодирования                   : XviD 1.2.1 (UTC 2008-12-04)
Аудио
Идентификатор                            : 1
Формат                                   : AC-3
Формат/Информация                        : Audio Coding 3
Расширение режима                        : CM (complete main)
Параметр Endianness формата              : Big
Идентификатор кодека                     : 2000
Продолжительность                        : 2 ч. 36 м.
Вид битрейта                             : Постоянный
Битрейт                                  : 128 Кбит/сек
Каналы                                   : 2 канала
Расположение каналов                     : Front: L R
Частота                                  : 48,0 КГц
Частота кадров                           : 31,250 кадров/сек (1536 spf)
Метод сжатия                             : С потерями
Размер потока                            : 143 Мбайт (10%)
Выравнивание                             : Разделение по промежуткам
Продолжительность промежутка             : 42  мс. (1,00 видеокадр)
Время предзагрузки промежутка            : 500  мс.
Скриншоты:
-Время раздачи: 24/7. До первых 10 скачавших
Яндекс.Метрика
Рейтинг@Mail.ru