Маски-шоу (Серии 01—69) (Георгий Делиев) [1992–2006, комедия, DVDRip/TVRip]

 

Создавать темы 21-Мар-2016 20:00

--Маски-шоу--
  • Год выпуска: 1992-2006
  • Страна: Украина / «Московский стиль»
  • Жанр: комедия
  • Продолжительность: 69 х ~00:25:00
  • Перевод: Не требуется-
  • Режиссёр: Георгий Делиев-
  • В ролях: Георгий Делиев, Борис Барский, Альберт Каспарянц, Владимир Комаров, Эвелина Блёданс, Александр Постоленко, Игорь Малахов, Наталья Бузько, Михаил Волошин, Алексей Агопьян...-
  • Пародийно-юмористическая программа обеспечит Вам несколько часов здорового смеха и невероятно весёлое настроение.
    Маски–шоу уже давно перестали быть комик–труппой. Они стали воистину юмористической легендой, которая живет уже более 25 лет и радует нас своими уморительными выступлениями и феноменально смешным телециклом, который из года в год повторяют множество каналов многих стран. К сожалению, в последнее время Маски-шоу выступают только в своем одесском Доме клоунов и не снимают телесерии, мы все же можем посмотреть старые выпуски шоу, которые со смелостью можно назвать идеальным одесским юмором без слов!
    --
  • --
  • Качество видео: DVDRip/TVRip
  • Формат видео: AVI/MPEG-PS
  • Видео кодек: XviD/MPEG
  • Аудио кодек: MP3/MP2
  • Видео: 640x480/352x288, 25.000 fps, XviD/MPEG Video, ~1200 kbps avg
  • Аудио: 48.0/44.1 kHz, MPEG Audio Layer 3/2, 2 ch, ~106.00/224.00 kbps avg
  • Субтитры: нет
--

Список серий

1. КомиКадзы 1; 00:26:04
2. КомиКадзы 2; 00:25:50
3. Маски и Джентльмен-Шоу; 00:40:30
4. Маски и спорт 1; 00:27:23
5. Маски и спорт 2; 00:26:33
6. Маски В армии 1; 00:24:30
7. Маски В армии 2; 00:26:31
8. Маски В опере; 01:06:31
9. Маски В суде; 00:51:29
10. Маски В больнице; 00:40:07
11. Маски На Диком Востоке; 01:31:49
12. Маски В ГАИ и Маски На пожаре; 00:57:08
13. Маски На ремонте и Маски На пикнике и Маски В Партизанском отряде; 01:31:04
14. Маски На свадьбе; 00:21:20
15. Маски На именинах; 00:44:25
16. Маски Грабят банк; 00:22:36
17. Маски В Одессе; 00:23:02
18. Маски и Джентльмен-Шоу (1 апреля); 00:23:49
19. Маски На Секретном объекте; 00:26:07
20. Маски В Колумбии; 00:28:11
21. Маски В поисках клада; 00:44:08
22. Маски На необитаемом острове; 00:45:04
23. Маски В Германии; 00:22:51
24. Маски В Израиле; 00:14:55
25. Маски В тюрьме 1; 00:23:33
26. Маски В тюрьме 2; 00:24:31
27. Маски В шахте; 00:25:42
28. Маски В стране восходящего солнца; 00:32:48
29. Маски В казино; 00:28:10
30. Маски В троллейбусе; 00:17:45
31. Маски В Кемерово; 00:26:29
32. Маски В кинотеатре; 00:25:24
33. Маски В криминале; 00:24:37
34. Маски В поезде 1; 00:19:01
35. Маски В поезде 2; 00:18:54
36. Маски В ресторане; 00:24:57
37. Маски На рыбалке; 00:20:30
38. Маски На гонках; 00:24:47
39. Маски 2005; 00:24:39
40. Маски Профессионал; 00:07:11
41. Маски На боях без правил; 00:25:11
42. Маски на выборах 1; 00:24:03
43. Маски на выборах 2; 00:23:42
44. Маски на выборах 3; 00:23:07
45. Маски на выборах 4; 00:25:14
46. Маски на выборах 5; 00:27:45
47. Маски на выборах 6; 00:23:19
48. Кабаре (Маски Шоу) 1; 00:36:35
49. Кабаре (Маски Шоу) 2; 00:29:27
50. Кабаре (Маски Шоу) 3; 00:29:19
51. Кабаре (Маски Шоу) 4; 00:24:36
52. Кабаре (Маски Шоу) 5; 00:26:36
53. Кабаре (Маски Шоу) 6; 00:26:46
54. Кабаре (Маски Шоу) 7; 00:26:26
55. Кабаре (Маски Шоу) 8; 00:25:57
56. Кабаре (Маски Шоу) 9; 00:26:57
57. Кабаре (Маски Шоу) 10; 00:25:33
58. Кабаре (Маски Шоу) 11; 00:26:35
59. Кабаре (Маски Шоу) 12; 00:26:19
60. Кабаре (Маски Шоу) 13; 00:26:12
61. Кабаре (Маски Шоу) 14; 00:26:21
62. Кабаре (Маски Шоу) 15; 00:25:44
63. Кабаре (Маски Шоу) 16; 00:26:54
64. Кабаре (Маски Шоу) 17; 00:30:27
65. Маски TV; 00:24:58
66. Маски Сборник; 00:17:20
67. Семь дней с Русской красавицей; 00:25:03
68. Семь дней с Русской красавицей PS; 01:50:39
69. Страшилки от Масок. 00:03:20

Награды

• Диплом Всемирного фестиваля молодежи и студентов в Москве
• Лауреаты Всесоюзного конкурса артистов эстрады (1986)
• Премия «Золотой нос» в Габрово
• Лауреаты артистов цирка в Пхеньяне
• Лауреаты всемирного конкурса артистов цирка
• Премия «Золотой Остап» за лучший спектакль года (1993)
• Награда ассоциации каскадеров России за вклад в трюковое кино
• Украинская национальная телевизионная награда «Золотой Георгий», «ТВтриумф» за «Маски в криминале» и «Маски в казино» (2001—2002)
• Номинация на награду «Золотая Роза» в Швейцарском телевизионном фестивале за «Маски в тюрьме»

Media Info

General
Complete name : W:\O.S.A.\Торренты\Завершенные торренты\-=Маски Шоу=-\-=КомиКадзы - 1=-.avi
Format : AVI
Format/Info : Audio Video Interleave
File size : 247 MiB
Duration : 26mn 4s
Overall bit rate : 1 327 Kbps
Writing library : The File had been created by Solveig Multimedia AVI Writer
Video
ID : 0
Format : MPEG-4 Visual
Format profile : [email protected]
Format settings, BVOP : 1
Format settings, QPel : No
Format settings, GMC : No warppoints
Format settings, Matrix : Custom
Codec ID : XVID
Codec ID/Hint : XviD
Duration : 26mn 4s
Bit rate : 1 207 Kbps
Width : 640 pixels
Height : 480 pixels
Display aspect ratio : 4:3
Frame rate : 25.000 fps
Color space : YUV
Chroma subsampling : 4:2:0
Bit depth : 8 bits
Scan type : Progressive
Compression mode : Lossy
Bits/(Pixel*Frame) : 0.157
Stream size : 225 MiB (91%)
Writing library : XviD 0.0.09 (UTC 2003-03-25)
Audio
ID : 1
Format : MPEG Audio
Format version : Version 1
Format profile : Layer 3
Mode : Joint stereo
Mode extension : MS Stereo
Codec ID : 55
Codec ID/Hint : MP3
Duration : 26mn 3s
Bit rate mode : Variable
Bit rate : 106 Kbps
Channel(s) : 2 channels
Sampling rate : 48.0 KHz
Compression mode : Lossy
Stream size : 19.8 MiB (8%)
Alignment : Aligned on interleaves
Interleave, duration : 24 ms (0.60 video frame)
Interleave, preload duration : 28 ms--General
Complete name : W:\O.S.A.\Торренты\Завершенные торренты\-=Маски Шоу=-\12.-=Маски на Именинах=-.mpg
Format : CDXA/MPEG-PS
File size : 448 MiB
Video
ID : 224 (0xE0)
Format : MPEG Video
Format version : Version 1
Format settings, BVOP : Yes
Format settings, Matrix : Default
Bit rate mode : Constant
Bit rate : 1 152 Kbps
Width : 352 pixels
Height : 288 pixels
Display aspect ratio : 4:3
Frame rate : 25.000 fps
Standard : PAL
Color space : YUV
Bit depth : 8 bits
Scan type : Progressive
Compression mode : Lossy
Bits/(Pixel*Frame) : 0.454
Audio
ID : 192 (0xC0)
Format : MPEG Audio
Format version : Version 1
Format profile : Layer 2
Bit rate mode : Constant
Bit rate : 224 Kbps
Channel(s) : 2 channels
Sampling rate : 44.1 KHz
Compression mode : Lossy
Delay relative to video : -80ms
---- --
Яндекс.Метрика
Рейтинг@Mail.ru