Крах инженера Гарина (Леонид Квинихидзе) [1973, приключения, научная фантастика, DVDRip-AVC]

 

Создавать темы 21-Мар-2016 09:18

--Крах инженера Гарина--
  • Год выпуска: 1973
  • Страна: СССР / «Ленфильм»
  • Жанр: приключения, научная фантастика
  • Продолжительность: 4 x ~01:03:00
  • Перевод: Не требуется-
  • Режиссёр: Леонид Квинихидзе-
  • В ролях: Олег Борисов, Александр Белявский, Василий Корзун, Геннадий Сайфулин, Нонна Терентьева, Владимир Татосов, Ефим Копелян, Михаил Волков, Эрнст Романов, Владимир Костин...-
  • Фильм снят по научно-фантастическому роману А. Н. Толстого "Гиперболоид инженера Гарина".
    В начале мая 192...года на заброшенной даче под Ленинградом происходит убийство. Сотрудник уголовного розыска Василий Шельга обнаруживает зарезанного человека со следами пыток. В просторном подвале дачи проводились какие-то физико-химические опыты. Возникает предположение, что убитый - некий инженер Петр Петрович Гарин. Между тем, настоящий инженер Гарин, тщеславный и аморальный тип, но необычайно талантливый ученый, разработавший тепловой чудо-луч (подобие нынешнего лазера), спасается от иностранных убийц, а гибнет загримированный под него двойник Гарина. Скоро Шельга понимает, что его одурачили, но поздно: Гарин ускользнул за границу. Он решает использовать гиперболоид для безумной идеи - стать правителем мира. В своем маниакальном стремлении инженер совершает одно преступление за другим, не предполагая, сколь ужасными окажутся последствия и для него самого. За Гариным и его опасным изобретением начинается настоящая охота...
    --
  • --
  • Качество видео: DVDRip-AVC
  • Формат видео: MKV
  • Видео кодек: H.264
  • Аудио кодек: AC3
  • Видео: 764x572 (1.34:1), 25.000 fps, MPEG-4 AVC, ~2100 kbps avg, 0.192 bit/pixel
  • Аудио: 48.0 kHz, AC3 Dolby Digital, 3/2 (L,C,R,l,r) + LFE ch, ~448.00 kbps avg
  • Субтитры: нет
--

Media Info

General
Unique ID : 253265719805567812516349234945454621240 (0xBE89340FCBDD0E6A8F72F3F98B09C238)
Complete name : D:\O.S.A.\Мои видеозаписи\Сборник старых фильмов\Крах инженера Гарина\Крах инженера Гарина 1 серия.mkv
Format : Matroska
File size : 1.16 GiB
Duration : 1h 5mn
Overall bit rate : 2 549 Kbps
Encoded date : UTC 2015-04-16 10:23:21
Writing application : mkvmerge v4.9.1 ('Ich will') сборка от Jul 11 2011 23:53:15
Writing library : libebml v1.2.1 + libmatroska v1.1.1
Video
ID : 1
Format : AVC
Format/Info : Advanced Video Codec
Format profile : [email protected]
Format settings, CABAC : Yes
Format settings, ReFrames : 4 frames
Format settings, GOP : M=10, N=45
Codec ID : V_MPEG4/ISO/AVC
Duration : 1h 5mn
Bit rate : 2 100 Kbps
Width : 764 pixels
Height : 572 pixels
Display aspect ratio : 4:3
Frame rate : 25.000 fps
Color space : YUV
Chroma subsampling : 4:2:0
Bit depth : 8 bits
Scan type : Progressive
Bits/(Pixel*Frame) : 0.192
Stream size : 953 MiB (80%)
Writing library : x264 core 125 r2208 d9d2288
Encoding settings : cabac=1 / ref=4 / deblock=1:-1:-1 / analyse=0x3:0x133 / me=umh / subme=7 / psy=1 / psy_rd=1.00:0.10 / mixed_ref=1 / me_range=16 / chroma_me=1 / trellis=2 / 8x8dct=1 / cqm=0 / deadzone=21,11 / fast_pskip=0 / chroma_qp_offset=-3 / threads=12 / lookahead_threads=2 / sliced_threads=0 / nr=0 / decimate=1 / interlaced=0 / bluray_compat=0 / constrained_intra=0 / bframes=9 / b_pyramid=2 / b_adapt=2 / b_bias=0 / direct=3 / weightb=1 / open_gop=0 / weightp=2 / keyint=250 / keyint_min=25 / scenecut=40 / intra_refresh=0 / rc_lookahead=50 / rc=2pass / mbtree=1 / bitrate=2100 / ratetol=1.0 / qcomp=0.60 / qpmin=0 / qpmax=69 / qpstep=4 / cplxblur=20.0 / qblur=0.5 / ip_ratio=1.40 / aq=1:1.00
Language : Russian
Audio
ID : 2
Format : AC-3
Format/Info : Audio Coding 3
Mode extension : CM (complete main)
Codec ID : A_AC3
Duration : 1h 5mn
Bit rate mode : Constant
Bit rate : 448 Kbps
Channel(s) : 6 channels
Channel positions : Front: L C R, Side: L R, LFE
Sampling rate : 48.0 KHz
Bit depth : 16 bits
Compression mode : Lossy
Stream size : 208 MiB (18%)
Language : Russian--General
Unique ID : 254327774213997289005137314270693142417 (0xBF55BF63075E64E4AE61CE812BD5AF91)
Complete name : D:\O.S.A.\Мои видеозаписи\Сборник старых фильмов\Крах инженера Гарина\Крах инженера Гарина 2 серия.mkv
Format : Matroska
File size : 1.13 GiB
Duration : 1h 3mn
Overall bit rate : 2 550 Kbps
Encoded date : UTC 2015-04-16 10:28:56
Writing application : mkvmerge v4.9.1 ('Ich will') сборка от Jul 11 2011 23:53:15
Writing library : libebml v1.2.1 + libmatroska v1.1.1
Video
ID : 1
Format : AVC
Format/Info : Advanced Video Codec
Format profile : [email protected]
Format settings, CABAC : Yes
Format settings, ReFrames : 4 frames
Format settings, GOP : M=8, N=11
Codec ID : V_MPEG4/ISO/AVC
Duration : 1h 3mn
Bit rate : 2 100 Kbps
Width : 764 pixels
Height : 572 pixels
Display aspect ratio : 4:3
Frame rate : 25.000 fps
Color space : YUV
Chroma subsampling : 4:2:0
Bit depth : 8 bits
Scan type : Progressive
Bits/(Pixel*Frame) : 0.192
Stream size : 930 MiB (80%)
Writing library : x264 core 125 r2208 d9d2288
Encoding settings : cabac=1 / ref=4 / deblock=1:-1:-1 / analyse=0x3:0x133 / me=umh / subme=7 / psy=1 / psy_rd=1.00:0.10 / mixed_ref=1 / me_range=16 / chroma_me=1 / trellis=2 / 8x8dct=1 / cqm=0 / deadzone=21,11 / fast_pskip=0 / chroma_qp_offset=-3 / threads=12 / lookahead_threads=2 / sliced_threads=0 / nr=0 / decimate=1 / interlaced=0 / bluray_compat=0 / constrained_intra=0 / bframes=9 / b_pyramid=2 / b_adapt=2 / b_bias=0 / direct=3 / weightb=1 / open_gop=0 / weightp=2 / keyint=250 / keyint_min=25 / scenecut=40 / intra_refresh=0 / rc_lookahead=50 / rc=2pass / mbtree=1 / bitrate=2100 / ratetol=1.0 / qcomp=0.60 / qpmin=0 / qpmax=69 / qpstep=4 / cplxblur=20.0 / qblur=0.5 / ip_ratio=1.40 / aq=1:1.00
Language : Russian
Audio
ID : 2
Format : AC-3
Format/Info : Audio Coding 3
Mode extension : CM (complete main)
Codec ID : A_AC3
Duration : 1h 3mn
Bit rate mode : Constant
Bit rate : 448 Kbps
Channel(s) : 6 channels
Channel positions : Front: L C R, Side: L R, LFE
Sampling rate : 48.0 KHz
Bit depth : 16 bits
Compression mode : Lossy
Stream size : 203 MiB (18%)
Language : Russian--General
Unique ID : 182782941449553455939388729196450897556 (0x8982B6CA69E5D1E6B6B656E79F735E94)
Complete name : D:\O.S.A.\Мои видеозаписи\Сборник старых фильмов\Крах инженера Гарина\Крах инженера Гарина 3 серия.mkv
Format : Matroska
File size : 1.13 GiB
Duration : 1h 3mn
Overall bit rate : 2 549 Kbps
Encoded date : UTC 2015-04-16 10:35:34
Writing application : mkvmerge v4.9.1 ('Ich will') сборка от Jul 11 2011 23:53:15
Writing library : libebml v1.2.1 + libmatroska v1.1.1
Video
ID : 1
Format : AVC
Format/Info : Advanced Video Codec
Format profile : [email protected]
Format settings, CABAC : Yes
Format settings, ReFrames : 4 frames
Format settings, GOP : M=8, N=9
Codec ID : V_MPEG4/ISO/AVC
Duration : 1h 3mn
Bit rate : 2 100 Kbps
Width : 764 pixels
Height : 572 pixels
Display aspect ratio : 4:3
Frame rate : 25.000 fps
Color space : YUV
Chroma subsampling : 4:2:0
Bit depth : 8 bits
Scan type : Progressive
Bits/(Pixel*Frame) : 0.192
Stream size : 929 MiB (80%)
Writing library : x264 core 125 r2208 d9d2288
Encoding settings : cabac=1 / ref=4 / deblock=1:-1:-1 / analyse=0x3:0x133 / me=umh / subme=7 / psy=1 / psy_rd=1.00:0.10 / mixed_ref=1 / me_range=16 / chroma_me=1 / trellis=2 / 8x8dct=1 / cqm=0 / deadzone=21,11 / fast_pskip=0 / chroma_qp_offset=-3 / threads=12 / lookahead_threads=2 / sliced_threads=0 / nr=0 / decimate=1 / interlaced=0 / bluray_compat=0 / constrained_intra=0 / bframes=9 / b_pyramid=2 / b_adapt=2 / b_bias=0 / direct=3 / weightb=1 / open_gop=0 / weightp=2 / keyint=250 / keyint_min=25 / scenecut=40 / intra_refresh=0 / rc_lookahead=50 / rc=2pass / mbtree=1 / bitrate=2100 / ratetol=1.0 / qcomp=0.60 / qpmin=0 / qpmax=69 / qpstep=4 / cplxblur=20.0 / qblur=0.5 / ip_ratio=1.40 / aq=1:1.00
Language : Russian
Audio
ID : 2
Format : AC-3
Format/Info : Audio Coding 3
Mode extension : CM (complete main)
Codec ID : A_AC3
Duration : 1h 3mn
Bit rate mode : Constant
Bit rate : 448 Kbps
Channel(s) : 6 channels
Channel positions : Front: L C R, Side: L R, LFE
Sampling rate : 48.0 KHz
Bit depth : 16 bits
Compression mode : Lossy
Stream size : 203 MiB (18%)
Language : Russian--General
Unique ID : 210212918549493531681394098299862144198 (0x9E2589137529C5FD846A414BF5C254C6)
Complete name : D:\O.S.A.\Мои видеозаписи\Сборник старых фильмов\Крах инженера Гарина\Крах инженера Гарина 4 серия.mkv
Format : Matroska
File size : 1.12 GiB
Duration : 1h 2mn
Overall bit rate : 2 550 Kbps
Encoded date : UTC 2015-04-16 10:37:08
Writing application : mkvmerge v4.9.1 ('Ich will') сборка от Jul 11 2011 23:53:15
Writing library : libebml v1.2.1 + libmatroska v1.1.1
Video
ID : 1
Format : AVC
Format/Info : Advanced Video Codec
Format profile : [email protected]
Format settings, CABAC : Yes
Format settings, ReFrames : 4 frames
Format settings, GOP : M=9, N=10
Codec ID : V_MPEG4/ISO/AVC
Duration : 1h 2mn
Bit rate : 2 100 Kbps
Width : 764 pixels
Height : 572 pixels
Display aspect ratio : 4:3
Frame rate : 25.000 fps
Color space : YUV
Chroma subsampling : 4:2:0
Bit depth : 8 bits
Scan type : Progressive
Bits/(Pixel*Frame) : 0.192
Stream size : 923 MiB (80%)
Writing library : x264 core 125 r2208 d9d2288
Encoding settings : cabac=1 / ref=4 / deblock=1:-1:-1 / analyse=0x3:0x133 / me=umh / subme=7 / psy=1 / psy_rd=1.00:0.10 / mixed_ref=1 / me_range=16 / chroma_me=1 / trellis=2 / 8x8dct=1 / cqm=0 / deadzone=21,11 / fast_pskip=0 / chroma_qp_offset=-3 / threads=12 / lookahead_threads=2 / sliced_threads=0 / nr=0 / decimate=1 / interlaced=0 / bluray_compat=0 / constrained_intra=0 / bframes=9 / b_pyramid=2 / b_adapt=2 / b_bias=0 / direct=3 / weightb=1 / open_gop=0 / weightp=2 / keyint=250 / keyint_min=25 / scenecut=40 / intra_refresh=0 / rc_lookahead=50 / rc=2pass / mbtree=1 / bitrate=2100 / ratetol=1.0 / qcomp=0.60 / qpmin=0 / qpmax=69 / qpstep=4 / cplxblur=20.0 / qblur=0.5 / ip_ratio=1.40 / aq=1:1.00
Language : Russian
Audio
ID : 2
Format : AC-3
Format/Info : Audio Coding 3
Mode extension : CM (complete main)
Codec ID : A_AC3
Duration : 1h 2mn
Bit rate mode : Constant
Bit rate : 448 Kbps
Channel(s) : 6 channels
Channel positions : Front: L C R, Side: L R, LFE
Sampling rate : 48.0 KHz
Bit depth : 16 bits
Compression mode : Lossy
Stream size : 202 MiB (18%)
Language : Russian
---- --
Яндекс.Метрика
Рейтинг@Mail.ru